Статистика раздачи
Размер:  14,89 GB   |    Зарегистрирован:  4 месяца 7 дней   |    Скачан:  0 раз

Полного источника не было: Никогда

 
   
 
 

karapuz ®

Пол:
Не указан
Стаж:
4 месяца 8 дней
Сообщений:
100

-Забавные Состязания ''Всех мультсупер звёзд'' Скуби-Ду / Scooby's All Star Laff-A-Lympics- Английское название: Scooby's All Star Laff-A-Lympics
Русское название: Забавные Состязания ''Всех мультсупер звёзд'' Скуби-Ду
Год выпуска: 1977
Страна: США.
Жанр: Приключения.
Продолжительность: ТВ (24 эп.), ~ 23 минуты
Перевод: Профессиональный (Полное Дублирование) EA (Екатеринбург Арт)
Субтитры: Нет-Режиссёр: Чарльз Николс, Рей Паттерсон, Карл Урбано / Charles A. Nichols, Ray Patterson, Carl Urbano
Описание: Игры, веселые трюки и розыгрыши в изобилии начинаются, когда три команды любимых персонажей студии Ханна-Барбера - Верные друзья, Сладкоежки и Отпетые мошенники - решают бороться за победу в четырех масштабных сериях этого качественного телесериала! Под комментарии Льва Снэггла и Волка Милдью, в мультфильме лицом к лицу встречаются такие известнейшие анимационные герои, как Скуби-Ду, а также Пес Хаклберри, Мишка Йоги, Крокодил Уолли, Динамит и многие другие. Забавные приключения включают в себя поло на скейтбордах, парные гонки в килтах, а также такие нетрадиционные задания, как "Создай оазис" и "Восхождение на Биг Бен". Невероятные приключения следуют одно за другим в этой увлекательной коллекции мультфильмов - абсолютных чемпионов по... способности рассмешить всю семью!-Релиз от: ALEKS KV-Над релизом работали:
ALEKS KV .......Предоставил кассеты, оцифровка
Ссылка на остальные раздачи
Доп. Информация:
В релизе, оцифровки всех кассет выпущенных компанией - "Екатеринбург Арт Home Video". Все оцифровки имеют Hi-Fi Stereo звук!

Обложки Кассет

Сэмпл
Качество: VHSRip
Формат видео: MPEG2
Контейнер: MPG
Аудио кодек: AC3
Видео: MPEG2 Video 720x576 (4:3) 25.00fps 9500Kbps
Аудио:

  • русская: Dolby AC3 48000Hz stereo 256Kbps [Дубляж ЕА]-

    Наличие серий в раздаче

    Сезон 1
    01 Швейцарские Альпы и Токио,Япония
    02 Флорида и Китай
    03 Акапулько и Англия
    04 Пустыня Сахара и Шотландия
    05 Франция и Австралия

    06 Афины,Греция и штат Миссури,США
    07 Италия и Китти Хок
    08 Египет и Шервудский лес
    09 Испания и Гималаи

    10 Индия и Израиль
    11 Африка и Сан-Франциско
    12 Большой Каньон и Ирландия
    13 Гавайи и Северная Норвегия
    14 Северный Полюс и Таити
    15 Аризона и Голландия

    16 Квебек и Багдад
    Сезон 2
    01 Россия и Карибское море
    02 Нью-Йорк и Турция
    03 Южная Америка и Трансильвания
    04 Лазурный берег и Новая Зеландия
    05 Новый Орлеан и Атлантида
    06 Марокко и Вашингтон
    07 Канада и Варшава - Польша
    08 Сиам и Луна

    Расположение серий в файлах

    Попахивает Отпетым Мошенничеством
    07 Италия и Китти Хок
    05 Франция и Австралия
    04 Пустыня Сахара и Шотландия

    ''Сладкоежки'' Мишки Йоги берут игру на себя!
    03 Акапулько и Англия
    16 Квебек и Багдад
    02 Флорида и Китай

    Ура ''Верным Друзьям'' Скуби-Ду
    12 Большой Каньон и Ирландия
    10 Индия и Израиль
    01 Швейцарские Альпы и Токио,Япония

    Подробные технические данные

    General
    Complete name : XXXXXX\XXXXXXXXX\Забавные Состязания ''Всех мультсупер звёзд'' Скуби-Ду [Попахивает Отпетым Мошенничеством] {Hi-Fi}.mpg
    Format : MPEG-PS
    File size : 4.97 GiB
    Duration : 1h 12mn
    Overall bit rate mode : Variable
    Overall bit rate : 9 882 Kbps
    Writing library : encoded by TMPGEnc MPEG Editor 2.0 Version. 2.2.8.177
    Video
    ID : 224 (0xE0)
    Format : MPEG Video
    Format version : Version 2
    Format profile : Main@Main
    Format settings, BVOP : Yes
    Format settings, Matrix : Custom
    Format settings, GOP : Variable
    Duration : 1h 12mn
    Bit rate mode : Variable
    Bit rate : 9 500 Kbps
    Width : 720 pixels
    Height : 576 pixels
    Display aspect ratio : 4:3
    Frame rate : 25.000 fps
    Standard : PAL
    Color space : YUV
    Chroma subsampling : 4:2:0
    Bit depth : 8 bits
    Scan type : Interlaced
    Scan order : Top Field First
    Compression mode : Lossy
    Bits/(Pixel*Frame) : 0.916
    Time code of first frame : 00:00:00:00
    Time code source : Group of pictures header
    Stream size : 4.75 GiB (95%)
    Writing library : TMPGEnc MPEG Editor 2.2.8.177
    Matrix coefficients : BT.601
    Audio
    ID : 189 (0xBD)-128 (0x80)
    Format : AC-3
    Format/Info : Audio Coding 3
    Mode extension : CM (complete main)
    Format settings, Endianness : Big
    Muxing mode : DVD-Video
    Duration : 1h 12mn
    Bit rate mode : Constant
    Bit rate : 256 Kbps
    Channel(s) : 2 channels
    Channel positions : Front: L R
    Sampling rate : 48.0 KHz
    Bit depth : 16 bits
    Compression mode : Lossy
    Stream size : 132 MiB (3%)

    Скриншоты

    [www.cybertorrent.ru].t1606.torrent 
    Торрент: Зарегистрирован [ 2018-02-16 08:13 ] · 7EDB9AC045DCC729D9954D7AB75375DC3267005F

    Скачать .torrent

    Скачать

    76 KB

    Статус: проверено
    Скачан: 0 раз
    Размер: 14,89 GB
  • Профиль [ЛС]
    Показать сообщения:    

    Текущее время: 23-Июн 18:02

    Часовой пояс: UTC ± 0



    Вы не можете начинать темы
    Вы не можете отвечать на сообщения
    Вы не можете редактировать свои сообщения
    Вы не можете удалять свои сообщения
    Вы не можете голосовать в опросах
    Вы не можете прикреплять файлы к сообщениям
    Вы можете скачивать файлы