Статистика раздачи
Размер:  1,15 GB   |    Зарегистрирован:  6 месяцев 4 дня   |    Скачан:  0 раз

Полного источника не было: Никогда

 
   
 
 

AleXa ®

Пол:
Не указан
Стаж:
6 месяцев 5 дней
Сообщений:
51

Футурама / Futurama / Сезон: 7 / Серии: 14-26 (26) (Мэтт Гроунинг / Matt Groening) [2013 г., анимация, комедия, фантастика, WEB-DLRip] VO (одноголосый закадовый) КетчупТВ.
Год выпуска: 2013.
Страна: США.
Жанр: анимация, комедия, фантастика
Продолжительность: серия ~ 22 минута.
Перевод: (одноголосый закадовый) КетчупТВ.
Режиссер: Мэтт Гроунинг / Matt Groening
Роли озвучивали: Билли Уэст, Кэти Сагал, Джон Ди Маджио, Тресс МакНилл, Морис ЛаМарш, Фил ЛаМарр, Лоурэн Том, Дэвид Херман...
Описание:Описание: Сериал начинается с того, что разносчик пиццы из Нью-Йорка Филипп Джей Фрай случайно, как это кажется на первый взгляд, был заморожен в криогенной камере ровно в 00 часов 00 минут 00 секунд 1 января 2000 года. Он был разморожен тысячу лет спустя, 31 декабря 2999 года, и обнаружил себя в городе будущего Нью-Нью-Йорке. .
Качество: WEB-DLRip
Формат: MP4
Видео: MP4, 704x400, 24,000 кадра/сек, 450 Кбит/сек
Аудио: AAC, 44,1 KHz, 2 канала, 128 Кбит/сек
Субтитры: нет
СЕМПЛ - (5.48 Mb)

Media info:

Format : MPEG-4
Format profile : Base Media
Codec ID : isom
File size : 90.3 MiB
Duration : 21mn 38s
Overall bit rate : 584 Kbps
Movie name : "Futurama"
Album : "Futurama"-2013
Track name/Position : 14
Track name/Total : 26
Performer : Katey Sagal, Billy West, John DiMaggio
Genre : Animation | Comedy | Sci-Fi
Encoded date : 2013
Tagged date : UTC 2013-07-02 01:14:58
Writing application : Lavf52.93.0
Cover : Yes
Comment : Fry, a pizza guy is accidentally frozen in 1999 and thawed out New Year's Eve 2999.
Video
ID : 1
Format : AVC
Format/Info : Advanced Video Codec
Format profile : High@L4.1
Format settings, CABAC : Yes
Format settings, ReFrames : 8 frames
Codec ID : avc1
Codec ID/Info : Advanced Video Coding
Duration : 21mn 38s
Bit rate mode : Variable
Bit rate : 450 Kbps
Width : 704 pixels
Height : 400 pixels
Display aspect ratio : 16:9
Frame rate mode : Constant
Frame rate : 24.000 fps
Resolution : 24 bits
Colorimetry : 4:2:0
Scan type : Progressive
Bits/(Pixel*Frame) : 0.067
Stream size : 69.6 MiB (77%)
Writing library : x264 core 112
Encoding settings : cabac=1 / ref=8 / deblock=1:0:0 / analyse=0x3:0x133 / me=umh / subme=9 / psy=1 / psy_rd=1.00:0.00 / mixed_ref=0 / me_range=24 / chroma_me=0 / trellis=2 / 8x8dct=1 / cqm=0 / deadzone=21,11 / fast_pskip=1 / chroma_qp_offset=-2 / threads=3 / sliced_threads=0 / nr=0 / decimate=1 / interlaced=0 / constrained_intra=0 / bframes=8 / b_pyramid=2 / b_adapt=2 / b_bias=0 / direct=3 / weightb=1 / open_gop=0 / weightp=2 / keyint=240 / keyint_min=24 / scenecut=40 / intra_refresh=0 / rc_lookahead=61 / rc=2pass / mbtree=1 / bitrate=450 / ratetol=1.0 / qcomp=0.50 / qpmin=10 / qpmax=51 / qpstep=4 / cplxblur=20.0 / qblur=0.5 / vbv_maxrate=24000 / vbv_bufsize=24000 / ip_ratio=1.70 / aq=1:1.00 / nal_hrd=none
Language : English
Encoded date : UTC 2013-07-02 01:14:58
Tagged date : UTC 2013-07-02 01:14:58
Audio
ID : 2
Format : AAC
Format/Info : Advanced Audio Codec
Format version : Version 4
Format profile : LC
Format settings, SBR : No
Codec ID : 40
Duration : 21mn 38s
Bit rate mode : Variable
Bit rate : 128 Kbps
Channel(s) : 2 channels
Channel positions : L R
Sampling rate : 44.1 KHz
Resolution : 16 bits
Stream size : 19.8 MiB (22%)
Language : Russian
Encoded date : UTC 2013-07-02 01:14:58
Tagged date : UTC 2013-07-02 01:14:58

Скриншоты

Список серий

7x14 2-D Blacktop
7x15 Fry and Leela's Big Fling
7x16 T: The Terrestrial
7x17 Forty Percent Leadbelly
7x18 The Inhuman Torch
7x19 Saturday Morning Fun Pit
7x20 Calculon 2.0
7x21 Assie Come Home
7x22 Leela and the Genestalk
7x23 Game of Tones
7x24 Murder on the Planet Express
7x25 Stench and Stenchibility
7x26 Meanwhile
Альтернативные раздачи Обновлено до эпизода #26
[www.cybertorrent.ru].t1602.torrent 
Торрент: Зарегистрирован [ 2018-02-16 08:13 ] · 941B1C196460B03B8551EE8FB81AF209DCCD16E2

Скачать .torrent

Скачать

13 KB

Статус: проверено
Скачан: 0 раз
Размер: 1,15 GB
Профиль [ЛС]
Показать сообщения:    

Текущее время: 20-Авг 12:17

Часовой пояс: UTC ± 0



Вы не можете начинать темы
Вы не можете отвечать на сообщения
Вы не можете редактировать свои сообщения
Вы не можете удалять свои сообщения
Вы не можете голосовать в опросах
Вы не можете прикреплять файлы к сообщениям
Вы можете скачивать файлы
Torrents24.ru открытый BitTorrent Torrents24.pl открытый BitTorrent CyberTorrent.ru открытый BitTorrent BtList.ru рейтинг BitTorrent трекеров Яндекс.Метрика