Статистика раздачи
Размер:  4,53 GB   |    Зарегистрирован:  8 месяцев 3 дня   |    Скачан:  0 раз

Полного источника не было: Никогда

 
   
 
 

Gomer ®

Пол:
Не указан
Стаж:
8 месяцев 4 дня
Сообщений:
40

Гриффины / Family Guy
Страна: США
Жанр: Мультсериал, комедия, пародия
Продолжительность: 00:21:40
Год выпуска: 2012
Перевод: Субтитры
Русские субтитры: есть
Режиссёр: Сет Макфарлейн / Seth MacFarlane
Роли озвучивали: Сет Макфарлейн, Алекс Борштейн, Сет Грин, Мила Кунис, Майк Генри
Описание: «Гриффины» (Family Guy) — американский анимационный ситком, созданный Сетом Макфарлейном для телекомпании Fox Broadcasting Company. В центре сюжета неблагополучная семья Гриффинов, состоящая из родителей, Питера и Лоис, их детей, Криса, Мэг и Стьюи, а также Брайана — антропоморфного пса. Действие ситкома происходит в Куахоге, вымышленном пригороде Провиденса, штат Род-Айленд. Бо́льшая часть юмора сериала представлена в форме так называемых врезок, которые зачастую не имеют ничего общего с сюжетом и содержат шутки на различные щепетильные и спорные темы, такие как политика, рабство, инвалидность, феминизм, ожирение и другие.
Сериал был 16 раз номинирован на Прайм-тайм премию «Эмми» (выигрывал четыре раза) и 11 раз на премию «Энни», одержав три победы. В 2009 году он был номинирован на премию «Эмми» в категории «Лучший комедийный сериал». Впервые после «Флинтстоунов» в 1961 году в подобной категории был представлен анимационный проект. «Гриффины» неоднократно были названы культовым сериалом, в то же время он часто подвергается отрицательной критике, в том числе за свою схожесть с «Симпсонами».
Список серий:
01. Into Fat Air (К разреженному воздуху)
02. Ratings Guy (Рейтинг Гриффина)
03. The Old Man & the Big 'C' (Старик и большая буква "С")
04. Yug Ylimaf (Ыниффирг)
05. Joe's Revenge (Месть Джо)
06. Lois Comes Out of Her Shell (Лоис выходит из скорлупы)
07. Friends Without Benefits (Друзья без обязательств)
08. Jesus, Mary & Joseph (Иисус, Мария и Иосиф)
09. Space Cadet (Космический кадет)
10. Brian's Play (Пьеса Брайана)
11. The Giggity Wife (Жена Куагмайра)
12. Valentine's Day in Quahog (День святого Валентина в Куахоге)
13. Chris Cross (Крисс Кросс)
14. Call Girl (Девушка по вызову)
15. Turban Cowboy (Ковбой в тюрбане)
16. 12 and a Half Angry Men (12 с половиной разгневанных мужиков)
17. Bigfat (Бигфут)
18. Total Recall (Вспомнить всё)
19. Save the Clam (Спасти Устрицу)
20. Farmer Guy (Фермер Гриффин)
21. Road to Vegas (Дорога в Вегас)
22. No Country Club For Old Men (Загородный клуб не для Стариков)
Доп. информация: Также есть раздача в более низком качестве.
Ссылка на предыдущие и альтернативные раздачи: http://cybertorrent.ru/tracker.php?nm=Family+Guy
Семпл: http://multi-up.com/874219
Качество: HDTVRip 720p
Формат: MKV
Видео: AVC, 1280x720, 23.976fps, ~1000-3000 kbps
Аудио: AC-3, 48000Hz, 6ch, ~300-500 kbps
Субтитры: RUS (notabenoid), ENG

Подробные технические данные

General
Unique ID : 33873490799249088859453920795153583129 (0x197BCC09D6983554707959284BD6CC19)
Complete name : D:\Users\zzxyy_000\Videos\Family Guy Season 11 Complete 720p HD\Family Guy S11E01 Into Fat Air.mkv
Format : Matroska
Format version : Version 2
File size : 404 MiB
Duration : 21mn 39s
Overall bit rate : 2 610 Kbps
Encoded date : UTC 2012-09-29 18:45:23
Writing application : mkvmerge v3.0.0 ('Hang up your Hang-Ups') built on Apr 19 2010 11:58:49
Writing library : libebml v0.7.7 + libmatroska v0.8.1
Video
ID : 1
Format : AVC
Format/Info : Advanced Video Codec
Format profile : High@L4.1
Format settings, CABAC : Yes
Format settings, ReFrames : 9 frames
Codec ID : V_MPEG4/ISO/AVC
Duration : 21mn 39s
Bit rate : 2 111 Kbps
Width : 1 280 pixels
Height : 720 pixels
Display aspect ratio : 16:9
Frame rate mode : Constant
Frame rate : 23.976 fps
Color space : YUV
Chroma subsampling : 4:2:0
Bit depth : 8 bits
Scan type : Progressive
Bits/(Pixel*Frame) : 0.096
Stream size : 327 MiB (81%)
Writing library : x264 core 128 r2216 198a7ea
Encoding settings : cabac=1 / ref=9 / deblock=1:2:2 / analyse=0x3:0x133 / me=umh / subme=10 / psy=1 / psy_rd=1.00:0.00 / mixed_ref=1 / me_range=28 / chroma_me=1 / trellis=2 / 8x8dct=1 / cqm=0 / deadzone=21,11 / fast_pskip=0 / chroma_qp_offset=-2 / threads=20 / lookahead_threads=3 / sliced_threads=0 / nr=0 / decimate=1 / interlaced=0 / bluray_compat=0 / constrained_intra=0 / bframes=5 / b_pyramid=2 / b_adapt=2 / b_bias=0 / direct=3 / weightb=1 / open_gop=0 / weightp=2 / keyint=250 / keyint_min=23 / scenecut=40 / intra_refresh=0 / rc_lookahead=60 / rc=crf / mbtree=1 / crf=18.0 / qcomp=0.60 / qpmin=0 / qpmax=69 / qpstep=4 / ip_ratio=1.40 / aq=1:1.00
Language : English
Default : No
Forced : No
Matrix coefficients : BT.709
Audio
ID : 2
Format : AC-3
Format/Info : Audio Coding 3
Mode extension : CM (complete main)
Format settings, Endianness : Big
Codec ID : A_AC3
Duration : 21mn 39s
Bit rate mode : Constant
Bit rate : 448 Kbps
Channel(s) : 6 channels
Channel positions : Front: L C R, Side: L R, LFE
Sampling rate : 48.0 KHz
Bit depth : 16 bits
Compression mode : Lossy
Stream size : 69.4 MiB (17%)
Default : Yes
Forced : No

Скриншоты

[www.cybertorrent.ru].t1591.torrent 
Торрент: Зарегистрирован [ 2018-02-16 08:13 ] · FE072F4C497543D56154CE98FA8BBF126AE18CDA

Скачать .torrent

Скачать

17 KB

Статус: проверено
Скачан: 0 раз
Размер: 4,53 GB
Профиль [ЛС]
Показать сообщения:    

Текущее время: 20-Окт 06:49

Часовой пояс: UTC ± 0



Вы не можете начинать темы
Вы не можете отвечать на сообщения
Вы не можете редактировать свои сообщения
Вы не можете удалять свои сообщения
Вы не можете голосовать в опросах
Вы не можете прикреплять файлы к сообщениям
Вы можете скачивать файлы
Torrents24.ru открытый BitTorrent Torrents24.pl открытый BitTorrent CyberTorrent.ru открытый BitTorrent BtList.ru рейтинг BitTorrent трекеров Яндекс.Метрика