BitTorrent клиенты



Том и Джерри. Золотая коллекция: Том первый [Диск 2] / Tom & Jerry Golden Collection: Volume One [Disk 2] (Джозеф Барбера, Уильям Ханна / Joseph Barbera, William Hanna) [1940-1948, мультфильм, комедия, семейный, BDRip 1080p] MVO + Eng

Ответить на тему
 
Автор Сообщение

manyak ®

Пол: Не указан

Стаж: 1 год

Сообщений: 943

Создавать темы 05-Фев-2018 18:33

[Цитировать]

Диск 2-Том и Джерри [Диск 2] / Tom and Jerry [Диск 2]- Страна: CША
Жанр: мультфильм, комедия, семейный
Продолжительность: 02:09:12
Год выпуска: 1940-1948
Перевод: Профессиональный (многоголосый закадровый)
Русские субтитры: нет
Режиссёр: Джозеф Барбера / Joseph Barbera, Ханна Уильям / William Hanna
Роли озвучивали: Tom and Jerry
Описание: Кот Том и мышонок Джерри вызывали смех и покоряли сердца детей и взрослых всего мира на протяжении десятилетий. До сих пор эти два мультгероя-суперзвезды с неизменным успехом поражают зрителей своим мастерством перевоплощения, новыми изобретательными трюками и розыгрышами.
Следите за уморительными проделками этой неуловимой парочки в первоклассной коллекции незабываемых мультяшек, и вы узнаете об изощренных ловушках, которые подстраивают друг другу веселые герои, и отправляйтесь в незабываемое приключение – лучшее в истории анимационного кино!

Список серий:


01. Flirty Birdy / Птичке хочется любви / (1945)
02. Quiet Please / Соблюдайте тишину / (1945)
03. Springtime For Thomas / Пришла весна / (1946)
04. The Milky Waif / Подкидыш / (1946)
05. Trap Happy / Охота на мышей / (1946)
06. Solid Serenade / Шумная серенада / (1946)
07. Cat Fishin / Том и Джерри на рыбалке / (1947)
08. Part Time Pal / Перемирие / (1947)
09. The Cat Concerto / Концерт для кота с оркестром! / (1947)
10. Dr. Jekyll And Mr. Mouse / Доктор Джекел и мистер Мыш / (1947)
11. Salt Water Tabby / Приключения на пляже / (1947)
12. A Mouse In The House / Если в доме завелись мыши / (1947)
13. The Invisible Mouse / Мышонок-невидимка / (1947)
14. Kitty Foiled / Надо друга выручать / (1948)
15. The Truce Hurts / Мирный договор / (1948)
16. Old Rocking Chair Tom / Старый, добрый Том / (1948)
17. Professor Tom / Том-учитель / (1948)
Семпл: http://multi-up.com/602938Качество: BDRip 1080p
Формат: MKV
Видео: 1920x1080p / MPEG-4 AVC Video / 9714 kbps / 1080p / 23,976 fps
Аудио: Russian / Dolby Digital Audio / 2.0 / 48 kHz / 192 kbps Профессиональный (многоголосый закадровый)
Субтитры: нет-Доп.мтериалы:

Оригинальные дорожки(Английский)

01. Flirty Birdy / Птичке хочется любви / (1945)
02. Quiet Please / Соблюдайте тишину / (1945)
03. Springtime For Thomas / Пришла весна / (1946)
04. The Milky Waif / Подкидыш / (1946)
05. Trap Happy / Охота на мышей / (1946)
06. Solid Serenade / Шумная серенада / (1946)
07. Cat Fishin / Том и Джерри на рыбалке / (1947)
08. Part Time Pal / Перемирие / (1947)
09. The Cat Concerto / Концерт для кота с оркестром! / (1947)
10. Dr. Jekyll And Mr. Mouse / Доктор Джекел и мистер Мыш / (1947)
11. Salt Water Tabby / Приключения на пляже / (1947)
12. A Mouse In The House / Если в доме завелись мыши / (1947)
13. The Invisible Mouse / Мышонок-невидимка / (1947)
14. Kitty Foiled / Надо друга выручать / (1948)
15. The Truce Hurts / Мирный договор / (1948)
16. Old Rocking Chair Tom / Старый, добрый Том / (1948)
17. Professor Tom / Том-учитель / (1948)
-Формат : AC-3
Аудио: English / Dolby Digital Audio / 1.0 / 48 kHz / 192 kbps

MediaInfo

ОбщееПолное имя 017.mkv
Формат : Matroska
Версия формата : Version 2
Размер файла : 544 Мбайт
Продолжительность : 7 м. 40 с.
Общий поток : 9904 Кбит/сек
Видео
Формат : AVC
Формат/Информация : Advanced Video Codec
Профиль формата : High@L4.0
Параметр CABAC формата : Да
Параметр ReFrames формата : 3 кадра
Идентификатор кодека : V_MPEG4/ISO/AVC
Продолжительность : 7 м. 40 с.
Битрейт : 9714 Кбит/сек
Ширина : 1472 пикселя
Высота : 1080 пикселей
Соотношение сторон : 4:3
Частота кадров : 23,976 кадра/сек
Цветовое пространство : YUV
Субдискретизация насыщенности : 4:2:0
Битовая глубина : 8 бит
Тип развёртки : Прогрессивная
Бит/(Пиксели*Кадры) : 0.255
Размер потока : 522 Мбайт (96%)
Аудио
Формат : AC-3
Формат/Информация : Audio Coding 3
Идентификатор кодека : A_AC3
Продолжительность : 7 м. 40 с.
Вид битрейта : Постоянный
Битрейт : 192 Кбит/сек
Каналы : 2 канала
Расположение каналов : Front: L R
Частота : 48,0 КГц
Битовая глубина : 16 бит
Размер потока : 10,5 Мбайт (2%)

Скриншоты


[Профиль] [ЛС]
Показать сообщения:    
Ответить на тему

Текущее время: 19-Фев 16:27

Часовой пояс: UTC + 3



Вы не можете начинать темы
Вы не можете отвечать на сообщения
Вы не можете редактировать свои сообщения
Вы не можете удалять свои сообщения
Вы не можете голосовать в опросах
Вы не можете прикреплять файлы к сообщениям
Вы можете скачивать файлы