BitTorrent клиенты



Божественное оружие / The Divine Weapon / Shin ge jeon (Ким Ю-джин / Yu-jin Kim) [2008, Южная Корея, псторический, боевик, приключения, BDRip 1080p]

Ответить на тему
 
Автор Сообщение

Angel ®

Пол: Не указан

Стаж: 1 год

Сообщений: 1346

Создавать темы 05-Фев-2018 18:08

[Цитировать]

-Божественное оружие / The Divine Weapon / Shin ge jeon
- Он прав. Давайте веселиться.
- И продадим все, кроме наших жен!
- Ты с ума сошел? Жен надо продавать в первую очередь!
- Да кто же их купит?

Год выпуска: 2008
Страна: Корея
Жанр: Исторический, Боевик, Приключения
Продолжительность: 2:14:09
Перевод: Любительский (одноголосый) - @PD
Русские субтитры: есть
Другие субтитры: английские
Режиссер: Ким Ю-джин / Yu-jin Kim
В ролях: Юнг Джай-янг / Jung Jae Young, Хан Ён-джун / Han Eun Jung, Ан Сун-ки / Ahn Sung Ki, Ху Джун-хo / Hur Jun HoОписание: Однажды вечером глава торговой общины Сол-джун, сын военного советника, изготовлявшего порох для королевского двора, который был казнен по ложному обвинению в государственной измене, после разговора с командующим армии Чан-кангом согласился принять и приютить у себя незванных гостей. Он даже не догадывался о том, какие сложные и опасные приключения повлечет за собой этот неожиданный визит. Не знали об этом и его друзья-купцы, которые, как обычно, с радостью согласились помочь ему в деле, которое как им казалось сулило всем хорошую прибыль. Единственным человеком, который понимал всю серьезность происходящего была девушка по имени Хонг-ли, дочь недавно погибшего военного советника Га-сонга, занимавшегося разработкой секретного оружия, ставшего прототипом первой в мире реактивной артиллерии. Но в интересах нации она до последнего момента должна была скрывать правду о Сингежоне, который в кулуарах дворца называли "Божественным оружием"... 5.8/10 (193 votes)Доп. информация: Перевод и озвучание @PD и группа КАМО - за что им огромное спасибо. Также спасибо dovjalex за чистый голос. Русская дорожка получена наложением чистого голоса на оригинальный DTS-HD HiRes. Перевод понравился - кино посмотрел с удовольствием.Рип от HDC (iwok).
Сэмпл-Качество: BDRip
Формат: MKV
Видео кодек: H.264
Аудио кодек: DTS
Видео: 1920x816, ~11964 Kbps, 23.976 fps (есть разбиение на главы)
Аудио 1: Русский DTS 5.1 1536 kbps 48kHz
Аудио 2: Корейский DTS 5.1 1536 kbps 48kHz-

MediaInfo

General
Complete name : Shin.ge.jeon.2008.1080p.BluRay.DTS.x264-HDC.Rus.mkv
Format : Matroska
File size : 14.0 GiB
Duration : 2h 14mn
Overall bit rate : 15.0 Mbps
Movie name : Shin ge jeon 2008 - HDC
Encoded date : UTC 2009-10-04 17:17:13
Writing application : mkvmerge v2.9.8 ('C'est le bon') built on Aug 13 2009 12:49:06
Writing library : libebml v0.7.7 + libmatroska v0.8.1
Video
ID : 1
Format : AVC
Format/Info : Advanced Video Codec
Format profile : High@L4.1
Format settings, CABAC : Yes
Format settings, ReFrames : 5 frames
Muxing mode : Container profile=Unknown@4.1
Codec ID : V_MPEG4/ISO/AVC
Duration : 2h 14mn
Bit rate : 11.7 Mbps
Nominal bit rate : 12.0 Mbps
Width : 1 920 pixels
Height : 816 pixels
Display aspect ratio : 2.35:1
Frame rate : 23.976 fps
Resolution : 24 bits
Colorimetry : 4:2:0
Scan type : Progressive
Bits/(Pixel*Frame) : 0.311
Stream size : 10.9 GiB (78%)
Writing library : x264 core 67 r1165M 6841c5e
Encoding settings : cabac=1 / ref=5 / deblock=1:-3:-4 / analyse=0x3:0x113 / me=tesa / subme=9 / psy_rd=1.3:0.0 / mixed_ref=1 / me_range=24 / chroma_me=1 / trellis=2 / 8x8dct=1 / cqm=0 / deadzone=21,11 / chroma_qp_offset=-2 / threads=12 / nr=0 / decimate=0 / mbaff=0 / bframes=6 / b_pyramid=1 / b_adapt=2 / b_bias=0 / direct=3 / wpredb=1 / keyint=250 / keyint_min=25 / scenecut=40 / rc=2pass / bitrate=11964 / ratetol=1.0 / qcomp=0.70 / qpmin=10 / qpmax=51 / qpstep=4 / cplxblur=20.0 / qblur=0.5 / vbv_maxrate=38000 / vbv_bufsize=38000 / ip_ratio=1.30 / pb_ratio=1.20 / aq=1:0.80
Language : English
Audio #1
ID : 2
Format : DTS
Format/Info : Digital Theater Systems
Codec ID : A_DTS
Duration : 2h 14mn
Bit rate mode : Constant
Bit rate : 1 510 Kbps
Channel(s) : 6 channels
Channel positions : Front: L C R, Surround: L R, LFE
Sampling rate : 48.0 KHz
Resolution : 24 bits
Stream size : 1.41 GiB (10%)
Title : Russian (AVO - @PD)
Language : Russian
Audio #2
ID : 3
Format : DTS
Format/Info : Digital Theater Systems
Codec ID : A_DTS
Duration : 2h 14mn
Bit rate mode : Constant
Bit rate : 1 510 Kbps
Channel(s) : 6 channels
Channel positions : Front: L C R, Surround: L R, LFE
Sampling rate : 48.0 KHz
Resolution : 24 bits
Stream size : 1.41 GiB (10%)
Title : Korean DTS 5.1 @ 1536 kbps (core of DTS-HR)
Language : Korean
Text #1
ID : 4
Format : UTF-8
Codec ID : S_TEXT/UTF8
Codec ID/Info : UTF-8 Plain Text
Language : Russian
Text #2
ID : 5
Format : UTF-8
Codec ID : S_TEXT/UTF8
Codec ID/Info : UTF-8 Plain Text
Title : English
Language : English
Menu
00:00:00.000 : :00:00:00.000
00:13:24.679 : :00:13:24.679
00:23:21.609 : :00:23:21.609
00:35:28.960 : :00:35:28.960
00:48:26.487 : :00:48:26.487
00:59:40.160 : :00:59:40.160
01:11:13.519 : :01:11:13.519
01:25:22.909 : :01:25:22.909
01:36:09.973 : :01:36:09.973
01:48:34.633 : :01:48:34.633
02:03:34.032 : :02:03:34.032
02:09:51.367 : :02:09:51.367

Source vs Encode

...................................Source....................................................Encode

[Профиль] [ЛС]
Показать сообщения:    
Ответить на тему

Текущее время: 21-Фев 23:34

Часовой пояс: UTC + 3



Вы не можете начинать темы
Вы не можете отвечать на сообщения
Вы не можете редактировать свои сообщения
Вы не можете удалять свои сообщения
Вы не можете голосовать в опросах
Вы не можете прикреплять файлы к сообщениям
Вы можете скачивать файлы