BitTorrent клиенты



Футурама / Futurama / Сезон: 6 / Серии: 14-26 из 26 (Мэтт Гроунинг / Matt Groening) [2010, комедия, фантастика, WEB-DLRip] VO (КетчупТВ) + Original

Ответить на тему
 
Автор Сообщение

Dream ®

Пол: Не указан

Стаж: 1 год

Сообщений: 816

Создавать темы 05-Фев-2018 18:34

[Цитировать]

Футурама / Futurama
Страна: США
Жанр: Мультфильм, комедия, фантастика
Продолжительность: 00:21:38
Год выпуска: 2010
Сезон: 6
Серии: 14-26 (из 26)
Перевод: Одноголосый закадровый
Озвучка: КетчупТВ
Русские субтитры: нет
Режиссёр: Мэтт Гроунинг / Matt Groening
Роли озвучивали: Билли Уэст, Кэти Сагал, Джон Ди Маджио, Тресс МакНилл, Морис ЛаМарш, Фил ЛаМарр, Лоурэн Том, Дэвид Херман
Описание: Действие мультфильма разворачивается, в основном, в будущем, а именно, в XXXI веке. Главным героем является Нью-Йоркский паренёк, Фрай, который 31 декабря 1999 года был случайно заморожен в криогенной камере, а разморожен через тысячу лет. В новом времени он знакомится с роботом Бендером, инопланетной девушкой Лилой и со своим пра-пра-пра-пра-пра-пра-пра-пра-пра-пра-племянником, профессором Хьюбертом Фарнсвордом, а потом и с Гермесом, Эмми, Зойдбергом и Нибблером. Все они работают в транспортно-экспедиционной компании "Межпланетный экспресс".
Предыдущие и альтернативные раздачи
Рейтинг:
Качество: WEB-DLRip
Формат: AVI
Видео: XviD, 720x400, 23.976 fps, 1185 kbps
Аудио Rus: MP3, 48 kHz, 2 ch, 128 kbps
Аудио Eng: MP3, 48 kHz, 2 ch, 128 kbps
Субтитры: отсутствуют

Скриншоты

Список серий

14. Неутопия (Neutopia)
15. Бендерама (Benderama)
16. Призрак в машинах (Ghost in the Machines)
17. Закон и Оракул (Law and Oracle)
18. Молчание Клешней (The Silence of the Clamps)
19. Привет, Лила, Лила (Yo Leela Leela)
20. Все президентские головы (All the Presidents Heads)
21. Мебиус Дик (Mobius Dick)
22. Фрай, хранитель яйца (Fry am the Egg Man)
23. Совет Зойдберга (The Tip of the Zoidberg)
24. Простуженные воины (Cold Warriors)
25. По часовой стрелке (Overclockwise)
26. Реинкарнация (Reincarnation)

Подробные технические данные

Полное имя : D:\Video\Futurama 6 ketchuptv\futurama.s06e25.web-dlrip.rus.eng.ketchuptv.avi
Формат : AVI
Формат/Информация : Audio Video Interleave
Размер файла : 225 Мбайт
Продолжительность : 21 м.
Общий поток : 1455 Кбит/сек
Программа кодирования : VirtualDubMod 1.5.10.2 (build 2540/release)
Библиотека кодирования : VirtualDubMod build 2540/release
Видео
Идентификатор : 0
Формат : MPEG-4 Visual
Профиль формата : Advanced Simple@L5
Параметр BVOP формата : 1
Параметр QPel формата : Нет
Параметр GMC формата : Без точки перехода
Параметр матрицы формата : Default (H.263)
Идентификатор кодека : XVID
Идентификатор кодека/Подсказка : XviD
Продолжительность : 21 м.
Битрейт : 1185 Кбит/сек
Ширина : 720 пикселей
Высота : 400 пикселей
Соотношение сторон : 16:9
Частота кадров : 23,976 кадра/сек
Цветовое пространство : YUV
Субдискретизация насыщенности : 4:2:0
Битовая глубина : 8 бит
Тип развёртки : Прогрессивная
Метод сжатия : С потерями
Бит/(Пиксели*Кадры) : 0.172
Размер потока : 183 Мбайт (81%)
Библиотека кодирования : XviD 1.2.1 (UTC 2008-12-04)
Аудио #1
Идентификатор : 1
Формат : MPEG Audio
Версия формата : Version 1
Профиль формата : Layer 3
Режим : Joint stereo
Расширение режима : MS Stereo
Идентификатор кодека : 55
Идентификатор кодека/Подсказка : MP3
Продолжительность : 21 м.
Вид битрейта : Постоянный
Битрейт : 128 Кбит/сек
Каналы : 2 канала
Частота : 48,0 КГц
Метод сжатия : С потерями
Размер потока : 19,8 Мбайт (9%)
Выравнивание : Соединение по промежуткам
Продолжительность промежутка : 42 мс. (1,00 видеокадр)
Время предзагрузки промежутка : 504 мс.
Библиотека кодирования : LAME3.97 (beta)
Аудио #2
Идентификатор : 2
Формат : MPEG Audio
Версия формата : Version 1
Профиль формата : Layer 3
Режим : Joint stereo
Расширение режима : MS Stereo
Идентификатор кодека : 55
Идентификатор кодека/Подсказка : MP3
Продолжительность : 21 м.
Вид битрейта : Постоянный
Битрейт : 128 Кбит/сек
Каналы : 2 канала
Частота : 48,0 КГц
Метод сжатия : С потерями
Размер потока : 19,8 Мбайт (9%)
Выравнивание : Соединение по промежуткам
Продолжительность промежутка : 42 мс. (1,00 видеокадр)
Время предзагрузки промежутка : 504 мс.

Внимание! Раздача ведётся путём добавления новых серий

Внимание! Раздача ведётся путём добавления новых серий; при каждом добавлении создётся новый торрент. Чтобы начать докачку новой серии, пользователям необходимо сделать следующее:
(1) остановить скачивание,
(2) удалить старый торрент-файл у себя из клиента (старые серии удалять не надо),
(3) скачать новый торрент-файл из раздачи и запустить его у себя в клиенте вместо старого, при этом указать клиенту путь в старую папку куда и должно происходить скачивание новых серий.
Ваш клиент при этом должен произвести хеширование (проверку) старой папки (если не производит сам - помогите ему сделать это), и будет докачивать только те серии которых у вас ещё нет. Старые серии при этом не удаляются, а продолжают раздаваться!
Eсли вы уже посмотрели и удалили старые серии, то предотвратить повторную закачку старых серий можно, сняв галочки в соответсвующих местах при запуске нового торрента. По возможности, желательно не удалять старые серии как можно дольше чтобы релизёр не столько продолжал раздавать старые серии, а смог сконцентрироваться на новых.
[Профиль] [ЛС]
Показать сообщения:    
Ответить на тему

Текущее время: 20-Фев 06:56

Часовой пояс: UTC + 3



Вы не можете начинать темы
Вы не можете отвечать на сообщения
Вы не можете редактировать свои сообщения
Вы не можете удалять свои сообщения
Вы не можете голосовать в опросах
Вы не можете прикреплять файлы к сообщениям
Вы можете скачивать файлы