Статистика раздачи
Размер:  4,95 GB   |    Зарегистрирован:  9 месяцев 24 дня   |    Скачан:  0 раз

Полного источника не было: Никогда

 
   
 
 

Gomer ®

Пол:
Не указан
Стаж:
9 месяцев 25 дней
Сообщений:
40

- Оригинальное название: Family Guy
Русское название: Гриффины
Год выпуска: 2011
Страна: США
Жанр: Мультсериал, комедия, пародия, мюзикл
Продолжительность: ~22 минут [серия]
Перевод:

  • Профессиональный (многоголосый, закадровый) 2x2,
  • Профессиональный (многоголосый, закадровый) FiLiZa Studio
    Сэмпл: скачать-Производство: FOX
    Режиссер: Сет Макфарлейн
    Роли озвучивали: Сет МакФарлейн, Алекс Борштейн, Сет Грин, Мила Кунис, Майк Генри и другие.-Описание: "Гриффины" (Family Guy) - анимационное ТВ-Шоу, созданное Сетом МакФерлайном (Seth MacFarlane) для телеканала FOX. Как нетрудно догадаться, главными героями шоу является семейка Гриффинов: тупой, но полный сумашедших идей, составляющих львиную долю шуток сериала, отец семейства Питер; его любящя и терпеливая жена Лойс, всеми силами пытающаяся превратить Гриффинов в нормальную семью; их интеллектуально развитый не по годам, вынашивающий идею мирового господства младший сын Стьюи; дочь-ботаник, обречённая из-за этого на одиночество и непонимание как в школе так и дома, Мэг; и 13-ти летний отсталый в развитии лет на 10, сын Крис. Также полноценным членом семьи является пёс Брайн - склонный к меланхолии эстет, спокойно наблюдающий с бокалом вина в лапе над приключениями Питера и остальных членов семьи (и это при всём притом, что остальные собаки в сериале не являются очеловеченными).- -Спасибо ALEKS KV'y за запись звука, а SerGoLeOne за сведение.-Формат: MKV
    Видео кодек: h264
    Аудио кодек: AC3
    Видео: MPEG4 Video (H264) 1280x720 23.98fps 4200Kbps
    Аудио:
  • 2x2: Dolby AC3 48000Hz stereo 192Kbps,
  • Filiza Studio: Dolby AC3 48000Hz 6ch 384Kbps,
  • оригинал: Dolby AC3 48000Hz 6ch 384Kbps
    Скриншоты:
    -

    Список серий:

    10 сезон:

    01. Lottery Fever
    02. Seahorse Seashell Party
    03. Screams of Silence The Story of Brenda Q
    04. Stewie Goes for a Drive
    05. Back to Pilot
    06. Thanksgiving
    07. Amish Guy
    08. Cool Hand Peter
    09. Grumpy Old Man
    10. Meg and Quagmire
    11. The Blind Side
    12. Livin'on a Prayer
    13. Tom Tucker: The Man and His Dream
    14. Be Careful What you Fish
    15. Burning Down the Bayit
    16. Killer Queen
    17. Forget-Me-Not
    18. You Can't Do That on Television, Peter
    19. Mr. & Mrs. Stewie
    20. Leggo My Meg-O

    Перевод и озвучание:

    -Перевод и озвучка от -Перевод: lUiGi, Little
    Роли озвучивали:
    Little - Стьюи, Куагмайер, Брайан, Крис, Морт, Джо, доктор Хартман, пират, Том Такер и другие.
    darkFIL - Питер, Джеймс Вудс, Карл, Дерек, Хорас, директор Шеппард и другие.
    Света - Лоис, Мэг, Бонни и другие женские роли.-Перевод и озвучка по заказу
    Перевод и озвучание: Media Info (ex Zone Vision)
    Роли озвучивали:
    Олег Форостенко - Питер, Кливленд и другие.
    Илья Хвостиков - Брайан, Стьюи, Куагмир и другие.
    Людмила Ильина - все женские и детские роли.

    Media Info

    Код:General
    Unique ID : 235929398819079215047069363315696182733 (0xB17E5971EE41825DAC54AF138B3FA5CD)
    Complete name : X:\HD\Family Guy - Complete series (SerGoLeOne)\10 season\01. Lottery Fever.mkv
    Format : Matroska
    Format version : Version 1
    File size : 557 MiB
    Duration : 21mn 36s
    Overall bit rate : 3 603 Kbps
    Encoded date : UTC 2013-04-23 18:37:03
    Writing application : mkvmerge v2.3.0 ('Freak U') built on Sep 8 2008 18:32:16
    Writing library : libebml v0.7.7 + libmatroska v0.8.1
    Video
    ID : 1
    Format : AVC
    Format/Info : Advanced Video Codec
    Format profile : High@L3.1
    Format settings, CABAC : No
    Format settings, ReFrames : 2 frames
    Codec ID : V_MPEG4/ISO/AVC
    Duration : 21mn 36s
    Bit rate : 2 571 Kbps
    Width : 1 280 pixels
    Height : 720 pixels
    Display aspect ratio : 16:9
    Frame rate mode : Constant
    Frame rate : 23.976 fps
    Color space : YUV
    Chroma subsampling : 4:2:0
    Bit depth : 8 bits
    Scan type : Progressive
    Bits/(Pixel*Frame) : 0.116
    Stream size : 397 MiB (71%)
    Language : English
    Default : Yes
    Forced : No
    Color primaries : BT.709
    Transfer characteristics : BT.709
    Matrix coefficients : BT.709
    Audio #1
    ID : 2
    Format : AC-3
    Format/Info : Audio Coding 3
    Mode extension : CM (complete main)
    Format settings, Endianness : Big
    Codec ID : A_AC3
    Duration : 21mn 36s
    Bit rate mode : Constant
    Bit rate : 192 Kbps
    Channel(s) : 2 channels
    Channel positions : Front: L R
    Sampling rate : 48.0 KHz
    Bit depth : 16 bits
    Compression mode : Lossy
    Stream size : 29.7 MiB (5%)
    Title : 2x2
    Language : Russian
    Default : Yes
    Forced : No
    Audio #2
    ID : 3
    Format : AC-3
    Format/Info : Audio Coding 3
    Mode extension : CM (complete main)
    Format settings, Endianness : Big
    Codec ID : A_AC3
    Duration : 21mn 36s
    Bit rate mode : Constant
    Bit rate : 384 Kbps
    Channel(s) : 6 channels
    Channel positions : Front: L C R, Side: L R, LFE
    Sampling rate : 48.0 KHz
    Bit depth : 16 bits
    Compression mode : Lossy
    Stream size : 59.3 MiB (11%)
    Title : Filiza Studio
    Language : Russian
    Default : No
    Forced : No
    Audio #3
    ID : 4
    Format : AC-3
    Format/Info : Audio Coding 3
    Mode extension : CM (complete main)
    Format settings, Endianness : Big
    Codec ID : A_AC3
    Duration : 21mn 36s
    Bit rate mode : Constant
    Bit rate : 384 Kbps
    Channel(s) : 6 channels
    Channel positions : Front: L C R, Side: L R, LFE
    Sampling rate : 48.0 KHz
    Bit depth : 16 bits
    Compression mode : Lossy
    Stream size : 59.3 MiB (11%)
    Title : Original
    Language : English
    Default : No
    Forced : No

    Внимание! Раздача ведется путем добавления новых серий!

    Внимание! Раздача ведётся путём добавления новых серий; при каждом добавлении создfётся новый торрент. Чтобы начать докачку новой серии, пользователям необходимо сделать следующее:
    (1) остановить скачивание,
    (2) удалить старый торрент у себя из клиента (старые серии удалять не надо),
    (3) скачать новый торрент и запустить его у себя в клиенте вместо старого, при этом указать клиенту путь в старую папку куда и должно происходить скачивание новых серий.
    Ваш клиент при этом должен произвести хеширование (проверку) старой папки (если не производит сам - помогите ему сделать это), и будет докачивать только те серии которых у вас ещё нет. Старые серии при этом не удаляются, а продолжают раздаваться!
    Eсли вы уже удалили старые серии, то предотвратить повторную закачку старых серий можно, отжав галочку в соответствующих местах при запуске нового торрента.
    [www.cybertorrent.ru].t1561.torrent 
    Торрент: Зарегистрирован [ 2018-02-16 08:13 ] · EF53AF72BD355F0DEAE2DE5E4EBE7A58AE5597C3

    Скачать .torrent

    Скачать

    13 KB

    Статус: проверено
    Скачан: 0 раз
    Размер: 4,95 GB
  • Профиль [ЛС]
    Показать сообщения:    

    Текущее время: 12-Дек 16:52

    Часовой пояс: UTC ± 0



    Вы не можете начинать темы
    Вы не можете отвечать на сообщения
    Вы не можете редактировать свои сообщения
    Вы не можете удалять свои сообщения
    Вы не можете голосовать в опросах
    Вы не можете прикреплять файлы к сообщениям
    Вы можете скачивать файлы
    Torrents24.ru открытый BitTorrent Torrents24.pl открытый BitTorrent CyberTorrent.ru открытый BitTorrent BtList.ru рейтинг BitTorrent трекеров Яндекс.Метрика