Статистика раздачи
Размер:  9,32 GB   |    Зарегистрирован:  8 месяцев 3 дня   |    Скачан:  0 раз

Полного источника не было: Никогда

 
   
 
 

antikvar ®

Пол:
Не указан
Стаж:
8 месяцев 4 дня
Сообщений:
50

17.05.14 - Добавлена 19 серия. Просьба перекачать торрент.Великий Человек-паук / Ultimate Spider-Man-- -Год выпуска: 2013
Страна: США
Жанр: мультфильм, фантастика, боевик, приключения
Продолжительность: 00:22:08
Перевод: 1)Любительский (многоголосый, закадровый) р/г SerGoLeOne
2)Любительский (двухголосый закадровый) ZM-SHOW 1-14

Режиссер: Алекс Сото, Джефф Аллен, Филип Пиньотти, ...
Сценарий: Джо Кэйси, Джо Келли, Дункан Руле, ...
Продюсер: Джозеф Лоуб III, Джо Кэйси, Джо Келли, ...
Композитор: Кевин Мантей
Монтаж: Джонатан Полк
В ролях: Дрейк Белл / Drake Bell (Peter Parker), Кейтлин Тейлор Лав / Caitlyn Taylor Love (Ava Ayala), Оги Бэнкс / Ogie Banks (Luke Cage), Грег Сайпс / Greg Cipes (Danny Rand,), Чи МакБрайд / Chi McBride (Nick Fury,), Логан Миллер / Logan Miller (Sam Alexander,), Кларк Грегг / Clark Gregg (Agent Phil Coulson,, Мэтт Лантер / Matt Lanter (Harry Osborn, )

Описание: Мультсериал основан на одноимённой серии комиксов, повествующих о ещё молодом Человеке-пауке, которому Ник Фьюри предложил пройти тренировочный курс для улучшения собственных навыков. В ходе обучения Человек-паук обзаводится командой из Люка Кейджа, Железного кулака, Новы и Белой тигрицы. В ходе тренировок ему предоставляется собственный мотоцикл (Спайдерцикл). В одной из серий Человек-паук встретит Железного Человека, который сделает ему броню Железного Паука.
Премьера (мир): 1 апреля 2012, ...
Премьера (РФ): 4 декабря 2012
Релиз на DVD: 19 марта 2013, «Уолт Дисней Компани СНГ», ...-- -Альтернативные раздачи-Формат: AVI
Видео кодек: XviD 73
Аудио кодеk: AC3
Видео: 720x400 (16:9), 23.976 fps, XviD 73, 1 547 Kbps
Аудио: Аудио #1: AC3, 192 Kbps, 48.0 KHz, 2 ch MVO SerGoLeOne
Аудио #2: AC3, 384 Kbps, 48.0 KHz, 6 ch DVO ZM-SHOW 1-14
Аудио #3: AC3, 384 Kbps, 48.0 KHz, 6 ch Eng

МедиаИнфо

Код:General
Complete name : 01. The Lizard.avi
Format : AVI
Format/Info : Audio Video Interleave
File size : 400 MiB
Duration : 22mn 8s
Overall bit rate : 2 525 Kbps
Writing application : VirtualDubMod 1.5.10.3 | www.virtualdub-fr.org || (build 2550/release)
Writing library : VirtualDubMod build 2550/release
Video
ID : 0
Format : MPEG-4 Visual
Format profile : Advanced Simple@L5
Format settings, BVOP : Yes
Format settings, QPel : No
Format settings, GMC : No warppoints
Format settings, Matrix : Default (MPEG)
Codec ID : DX50
Codec ID/Hint : DivX 5
Duration : 22mn 8s
Bit rate : 1 547 Kbps
Width : 720 pixels
Height : 400 pixels
Display aspect ratio : 16:9
Frame rate : 23.976 fps
Color space : YUV
Chroma subsampling : 4:2:0
Bit depth : 8 bits
Scan type : Progressive
Bits/(Pixel*Frame) : 0.224
Stream size : 245 MiB (61%)
Writing library : XviD 73
Audio #1
ID : 1
Format : AC-3
Format/Info : Audio Coding 3
Mode extension : CM (complete main)
Codec ID : 2000
Duration : 22mn 8s
Bit rate mode : Constant
Bit rate : 192 Kbps
Channel(s) : 2 channels
Channel positions : Front: L R
Sampling rate : 48.0 KHz
Bit depth : 16 bits
Stream size : 30.4 MiB (8%)
Alignment : Split accross interleaves
Interleave, duration : 42 ms (1.00 video frame)
Interleave, preload duration : 500 ms
Audio #2
ID : 2
Format : AC-3
Format/Info : Audio Coding 3
Mode extension : CM (complete main)
Codec ID : 2000
Duration : 22mn 8s
Bit rate mode : Constant
Bit rate : 384 Kbps
Channel(s) : 6 channels
Channel positions : Front: L C R, Side: L R, LFE
Sampling rate : 48.0 KHz
Bit depth : 16 bits
Stream size : 60.8 MiB (15%)
Alignment : Split accross interleaves
Interleave, duration : 42 ms (1.00 video frame)
Interleave, preload duration : 500 ms
Audio #3
ID : 3
Format : AC-3
Format/Info : Audio Coding 3
Mode extension : CM (complete main)
Codec ID : 2000
Duration : 22mn 8s
Bit rate mode : Constant
Bit rate : 384 Kbps
Channel(s) : 6 channels
Channel positions : Front: L C R, Side: L R, LFE
Sampling rate : 48.0 KHz
Bit depth : 16 bits
Stream size : 60.8 MiB (15%)
Alignment : Split accross interleaves
Interleave, duration : 42 ms (1.00 video frame)
Interleave, preload duration : 500 ms

Сезоны

Сезон 2
2.01The Lizard / Ящер (21.01.2013)
2.02 Electro / Электро (21.01.2013)
2.03 The Rhino / Рино (27.01.2013)
2.04 Kraven the Hunter / Крэйвэн-Охотник (03.02.2013)
2.05 Hawkeye / Соколиный Глаз (10.02.2013)
2.06 Sinister Six / Зловещая шестёрка (17.02.2013)
2.07 Человек-Паук! / Spidah-Man! (24.03.2013)
2.08 Carnage/ Карнаж/Потрошитель/Побоище! (31.03.2013)
2.09 House Arrest/ Домашний арест (7.04.2013)
2.10 The Man-Wol f/ Человек-Волк (14.04.2013)
2.11 Рой / Swarm (21.04.2013)
2.12 Малышка-паучишка / Itsy Bitsy Spider-Man (9.06.2013)
2.13 Путешествие Железного Кулака / Journey of the Iron Fist (16.06.2013)
2.14 Невероятный человек-Халк / The Incredible Spider-Hulk (23.06.2013)
2.15 Останься со стэном / Stan By Me (7.07.2013)
2.16 Ultimate Deadpool / Ultimate Deadpool (14.07.2013)
2.17 Веномная бомба/ Бомба яда// Ultimate Deadpool (21.07.2013)
2.18 Стражи Галактики / Guardians of the Galaxy (28.07.2013)
2.19 The Parent Trap / Родительская ловушка (28.07.2013)
2.20 Конец игры / Game Over (28.07.2013)
2.21 Блэйд / Лезвие/Лист / Blade (5.10.2013)
2.22 Воющие коммандос/ The Howling Commandos (5.10.2013)
2.23 Второй случайный герой /Второй шанс героя/Секундный шанс героя/Second Chance Hero (5.10.2013)
2.24 Возвращение Песочного Человека / Sandman Returns (5.10.2013)
2.25 Возвращение Зловещей Шестёрки/ Return of the Sinister Six (5.10.2013)
2.26 Совершенный / Ultimate (5.10.2013)
Автор рипа: Semak
[www.cybertorrent.ru].t1549.torrent 
Торрент: Зарегистрирован [ 2018-02-16 08:13 ] · DAB54E297D96279E13748E3E0F7C9A7874764B4F

Скачать .torrent

Скачать

189 KB

Статус: проверено
Скачан: 0 раз
Размер: 9,32 GB
Профиль [ЛС]
Показать сообщения:    

Текущее время: 20-Окт 02:35

Часовой пояс: UTC ± 0



Вы не можете начинать темы
Вы не можете отвечать на сообщения
Вы не можете редактировать свои сообщения
Вы не можете удалять свои сообщения
Вы не можете голосовать в опросах
Вы не можете прикреплять файлы к сообщениям
Вы можете скачивать файлы
Torrents24.ru открытый BitTorrent Torrents24.pl открытый BitTorrent CyberTorrent.ru открытый BitTorrent BtList.ru рейтинг BitTorrent трекеров Яндекс.Метрика