Статистика раздачи
Размер:  1,86 GB   |    Зарегистрирован:  5 месяцев 26 дней   |    Скачан:  0 раз

Полного источника не было: Никогда

 
   
 
 

Gomer ®

Пол:
Не указан
Стаж:
5 месяцев 27 дней
Сообщений:
40

Гриффины / Family Guy
Страна: США
Жанр: Мультсериал, комедия, пародия
Продолжительность: 00:21:40
Год выпуска: 2012
Перевод: Субтитры
Русские субтитры: есть
Режиссёр: Сет Макфарлейн / Seth MacFarlane
Роли озвучивали: Сет Макфарлейн, Алекс Борштейн, Сет Грин, Мила Кунис, Майк Генри
Описание: «Гриффины» (Family Guy) — американский анимационный ситком, созданный Сетом Макфарлейном для телекомпании Fox Broadcasting Company. В центре сюжета неблагополучная семья Гриффинов, состоящая из родителей, Питера и Лоис, их детей, Криса, Мэг и Стьюи, а также Брайана — антропоморфного пса. Действие ситкома происходит в Куахоге, вымышленном пригороде Провиденса, штат Род-Айленд. Бо́льшая часть юмора сериала представлена в форме так называемых врезок, которые зачастую не имеют ничего общего с сюжетом и содержат шутки на различные щепетильные и спорные темы, такие как политика, рабство, инвалидность, феминизм, ожирение и другие.
Сериал был 16 раз номинирован на Прайм-тайм премию «Эмми» (выигрывал четыре раза) и 11 раз на премию «Энни», одержав три победы. В 2009 году он был номинирован на премию «Эмми» в категории «Лучший комедийный сериал». Впервые после «Флинтстоунов» в 1961 году в подобной категории был представлен анимационный проект. «Гриффины» неоднократно были названы культовым сериалом, в то же время он часто подвергается отрицательной критике, в том числе за свою схожесть с «Симпсонами».
Список серий:
01. Into Fat Air (К разреженному воздуху)
02. Ratings Guy (Рейтинг Гриффина)
03. The Old Man & the Big 'C' (Старик и большая буква "С")
04. Yug Ylimaf (Ыниффирг)
05. Joe's Revenge (Месть Джо)
06. Lois Comes Out of Her Shell (Лоис выходит из скорлупы)
07. Friends Without Benefits (Друзья без обязательств)
08. Jesus, Mary & Joseph (Иисус, Мария и Иосиф)
09. Space Cadet (Космический кадет)
10. Brian's Play (Пьеса Брайана)
11. The Giggity Wife (Жена Куагмайра)
12. Valentine's Day in Quahog (День святого Валентина в Куахоге)
13. Chris Cross (Крисс Кросс)
14. Call Girl (Девушка по вызову)
15. Turban Cowboy (Ковбой в тюрбане)
16. 12 and a Half Angry Men (12 с половиной разгневанных мужиков)
17. Bigfat (Бигфут)
18. Total Recall (Вспомнить всё)
19. Save the Clam (Спасти Устрицу)
20. Farmer Guy (Фермер Гриффин)
21. Road to Vegas (Дорога в Вегас)
22. No Country Club For Old Men (Загородный клуб не для Стариков)
Доп. информация: Также, можно скачать релиз в 720p.
Ссылка на предыдущие и альтернативные раздачи: http://cybertorrent.ru/tracker.php?nm=Family+Guy
Семпл: http://multi-up.com/848413
Качество: HDTVRip
Формат: MP4
Видео: AVC, 720x404 (16:9), 23.976 fps, ~500-1000 kbps
Аудио: [eng] AAC, 48000Hz, stereo, ~100-120 kbps
Субтитры: RUS (notabenoid), ENG

Подробные технические данные

General
Complete name : \\OPENMEDIAVAULT\Video\torrents\Family Guy - Season 11\Family.Guy.S11E01.HDTV.x264-LOL.mp4
Format : MPEG-4
Format profile : Base Media
Codec ID : isom
File size : 156 MiB
Duration : 21mn 39s
Overall bit rate mode : Variable
Overall bit rate : 1 005 Kbps
Encoded date : UTC 2012-09-28 18:17:34
Tagged date : UTC 2012-09-28 18:17:34
Video
ID : 1
Format : AVC
Format/Info : Advanced Video Codec
Format profile : High@L3.1
Format settings, CABAC : Yes
Format settings, ReFrames : 5 frames
Codec ID : avc1
Codec ID/Info : Advanced Video Coding
Duration : 21mn 39s
Bit rate : 895 Kbps
Maximum bit rate : 6 796 Kbps
Width : 720 pixels
Height : 404 pixels
Display aspect ratio : 16:9
Frame rate mode : Constant
Frame rate : 23.976 fps
Color space : YUV
Chroma subsampling : 4:2:0
Bit depth : 8 bits
Scan type : Progressive
Bits/(Pixel*Frame) : 0.128
Stream size : 139 MiB (89%)
Writing library : x264 core 128 r2216 198a7ea
Encoding settings : cabac=1 / ref=5 / deblock=1:2:2 / analyse=0x3:0x133 / me=umh / subme=9 / psy=1 / psy_rd=1.00:0.00 / mixed_ref=1 / me_range=16 / chroma_me=1 / trellis=2 / 8x8dct=1 / cqm=0 / deadzone=21,11 / fast_pskip=1 / chroma_qp_offset=-2 / threads=20 / lookahead_threads=3 / sliced_threads=0 / nr=0 / decimate=1 / interlaced=0 / bluray_compat=0 / constrained_intra=0 / bframes=3 / b_pyramid=2 / b_adapt=2 / b_bias=0 / direct=3 / weightb=1 / open_gop=0 / weightp=2 / keyint=250 / keyint_min=23 / scenecut=40 / intra_refresh=0 / rc_lookahead=60 / rc=crf / mbtree=1 / crf=19.0 / qcomp=0.60 / qpmin=0 / qpmax=69 / qpstep=4 / ip_ratio=1.40 / aq=1:1.00
Encoded date : UTC 2012-09-29 17:02:33
Tagged date : UTC 2012-09-28 18:17:37
Matrix coefficients : BT.709
Audio
ID : 2
Format : AAC
Format/Info : Advanced Audio Codec
Format profile : LC
Codec ID : 40
Duration : 21mn 39s
Bit rate mode : Variable
Bit rate : 106 Kbps
Maximum bit rate : 143 Kbps
Channel(s) : 2 channels
Channel positions : Front: L R
Sampling rate : 48.0 KHz
Compression mode : Lossy
Delay relative to video : 83ms
Stream size : 16.5 MiB (11%)
Encoded date : UTC 2012-09-28 18:17:36
Tagged date : UTC 2012-09-28 18:17:37

Скриншоты

09.06.2013 Раздача обновлена. Выложены оставшиеся серии. Добавлены английские субтитры.
[www.cybertorrent.ru].t1539.torrent 
Торрент: Зарегистрирован [ 2018-02-16 08:13 ] · 621BC20862B7274884174B8712C95D6D415E161F

Скачать .torrent

Скачать

24 KB

Статус: проверено
Скачан: 0 раз
Размер: 1,86 GB
Профиль [ЛС]
Показать сообщения:    

Текущее время: 15-Авг 04:58

Часовой пояс: UTC ± 0



Вы не можете начинать темы
Вы не можете отвечать на сообщения
Вы не можете редактировать свои сообщения
Вы не можете удалять свои сообщения
Вы не можете голосовать в опросах
Вы не можете прикреплять файлы к сообщениям
Вы можете скачивать файлы
Torrents24.ru открытый BitTorrent Torrents24.pl открытый BitTorrent CyberTorrent.ru открытый BitTorrent BtList.ru рейтинг BitTorrent трекеров Яндекс.Метрика