BitTorrent клиенты



Все идет по плану / Frei nach Plan (Франциска Мелецки / Franziska Meletzky) [2007, Германия, Комедия, драма, DVDRip] DVO

Ответить на тему
 
Автор Сообщение

Angel ®

Пол: Не указан

Стаж: 1 год

Сообщений: 1346

Создавать темы 05-Фев-2018 18:09

[Цитировать]

Все идет по плану / Frei nach Plan
Год выпуска: 2007
Страна: Германия
Жанр: Комедия, драма
Продолжительность: 01:32:10
Перевод: Профессиональный (двухголосый)
Русские субтитры: нет
Режиссер: Франциска Мелецки / Franziska Meletzky
В ролях: Корина Гарфоух, Дагмар Манцель, Кристен Блок, Роберт Галиновски
Описание: В одном немецком городке добропорядочное семейство готовится справить юбилей матери — местной знаменитости Сильвии, возглавляющей любительский театр. Трое дочерей, которым уже от тридцати пяти до сорока с хвостом, планируют изумительный праздник. Младшая, Анне, не слишком удачливая рок-певица, привезла в подарок из Дублина песню. Средняя, Марианна, обаятельная школьная учительница, вовремя заберет торт. Старшая, одинокая Ирис, измученная десятилетним уходом за матерью, держит все под контролем. Отец дочерей, бывший муж Сильвии, приезжает с молодой подругой. Словом, все в сборе, чтобы все прошло по плану. Торжество отпразднует весь город.
Доп. информация: IMDb 6.3/10 51 votes
Качество: DVDRip
Формат: AVI
Видео кодек: XviD
Аудио кодек: AC3
Видео: XviD ISO MPEG-4; 704 x 400 (1.76:1); 25 Fr/s; 929 kbps; 0.132 bits/pics-fr
Аудио: Dolby AC3 48000Hz 192 kb/s tot , stereo (2/0)

MediaInfo

General
Complete name : H:\torrent\perezaliv\Vse.idet.po.planu.XviD.DVDRip.Dim-Dim.avi
Format : AVI
Format/Info : Audio Video Interleave
File size : 743 MiB
Duration : 1 h 32 min
Overall bit rate : 1 128 kb/s
Movie name : Vse.idet.po.planu.2007.XviD.DVDRip.Dim-Dim
Director : Dim-Dim Studio
Recorded date : 2009.08.13
Writing application : VirtualDubMod 1.5.10.2 (build 2540/release)
Writing library : VirtualDubMod build 2540/release
Video
ID : 0
Format : MPEG-4 Visual
Format profile : Advanced Simple@L5
Format settings : BVOP2
Format settings, BVOP : 2
Format settings, QPel : No
Format settings, GMC : No warppoints
Format settings, Matrix : Default (H.263)
Muxing mode : Packed bitstream
Codec ID : XVID
Codec ID/Hint : XviD
Duration : 1 h 32 min
Bit rate : 926 kb/s
Width : 704 pixels
Height : 400 pixels
Display aspect ratio : 16:9
Frame rate : 25.000 FPS
Color space : YUV
Chroma subsampling : 4:2:0
Bit depth : 8 bits
Scan type : Progressive
Compression mode : Lossy
Bits/(Pixel*Frame) : 0.132
Stream size : 610 MiB (82%)
Writing library : XviD 1.2.0.dev47 (UTC 2006-11-01)
Audio
ID : 1
Format : AC-3
Format/Info : Audio Coding 3
Format settings, Endianness : Big
Codec ID : 2000
Duration : 1 h 32 min
Bit rate mode : Constant
Bit rate : 192 kb/s
Channel(s) : 2 channels
Channel positions : Front: L R
Sampling rate : 48.0 kHz
Frame rate : 31.250 FPS (1536 SPF)
Bit depth : 16 bits
Compression mode : Lossy
Stream size : 127 MiB (17%)
Alignment : Split accross interleaves
Interleave, duration : 40 ms (1.00 video frame)
Interleave, preload duration : 500 ms
Service kind : Complete Main

Скриншоты


СЕМПЛ
Исходник DVD-9 , спасибо, tallincov
[Профиль] [ЛС]
Показать сообщения:    
Ответить на тему

Текущее время: 22-Фев 23:57

Часовой пояс: UTC + 3



Вы не можете начинать темы
Вы не можете отвечать на сообщения
Вы не можете редактировать свои сообщения
Вы не можете удалять свои сообщения
Вы не можете голосовать в опросах
Вы не можете прикреплять файлы к сообщениям
Вы можете скачивать файлы