BitTorrent клиенты



Знамение / Knowing (Алекс Пройас / Alex Proyas) [720p] [2009, фантастика, боевик, триллер, драма, детектив, BDRip]

Ответить на тему
 
Автор Сообщение

Вектор ®

Пол: Не указан

Стаж: 1 год

Сообщений: 4452

Создавать темы 05-Фев-2018 18:09

[Цитировать]

Знамение / Knowing
-Год выпуска: 2009
Страна: США, Великобритания
Жанр: фантастика, боевик, триллер, драма, детектив
Продолжительность: 02:01:29
Перевод: профессиональный (полное дублирование) + профессиональный (многоголосный, закадровый) + профессиональный (одноголосный)-Режиссер: Алекс Пройас
В ролях: Николас Кейдж, Чандлер Кентербери, Роуз Бирн, Д.Г. Малуни, Лара Робинсон, Надя Таунсенд, Алан Хопгуд, Эдриэнн Пикеринг, Джошуа Лонг, Даниэль Картер-Описание: После вскрытия «временной капсулы», в которую в 1959 группа школьников поместила рисунки со своим видением будущего, в руки к профессору Джону Кестлеру попадает загадочный лист, сверху до низу исписанный цифрами. В поисках расшифровки содержания листа, Кестлер устанавливает загадочную связь между цифрами и крупнейшими мировыми бедствиями, произошедшими на Земле за последние 50 лет. Если верить цифрам, трагедий не избежать и в будущем, только теперь Кестлер знает, когда их ожидать. Но есть ли возможность их предотвратить? И самое главное: что будет, когда цепочка цифр кончится?-http://www.imdb.com/title/tt0448011/
http://www.kinopoisk.ru/level/1/film/102510/-Рип от DON!-Качество: BDRip 720p
Контейнер: MKV
Видео: x264 L5.1, 1280x544, 4854 kbps, 23.976 fps
Аудио #1: AC3 5.1, 48 kHz, 448 kbps /Русский, Дубляж/
Аудио #2: AC3 5.1, 48 kHz, 448 kbps /Русский, Многоголосный (Киномания)/
Аудио #3: AC3 5.1, 48 kHz, 448 kbps /Русский, Одноголосный (Сербин)/
Аудио #4: DTS 5.1, 48 kHz, 1536 kbps /Английский/
Субтитры #1: Русские (Киномания)
Субтитры #2: Английские-

MediaInfo

General
Unique ID : 229648828230285933093063104505736257636 (0xACC4C16854BCF3DC8C5B7A2A8996E064)
Complete name : F:\new2\Knowing.2009.720p.BluRay.DTS.x264-DON.mkv
Format : Matroska
Format version : Version 2
File size : 6.54 GiB
Duration : 2 h 1 min
Overall bit rate : 7 708 kb/s
Movie name : Knowing
Encoded date : UTC 2009-07-30 08:40:02
Writing application : mkvmerge v2.9.7 ('Tenderness') built on Jul 1 2009 18:43:35
Writing library : libebml v0.7.7 + libmatroska v0.8.1
Video
ID : 1
Format : AVC
Format/Info : Advanced Video Codec
Format profile : High@L5.1
Format settings : CABAC / 12 Ref Frames
Format settings, CABAC : Yes
Format settings, RefFrames : 12 frames
Codec ID : V_MPEG4/ISO/AVC
Duration : 2 h 1 min
Bit rate : 4 854 kb/s
Width : 1 280 pixels
Height : 544 pixels
Display aspect ratio : 2.35:1
Frame rate mode : Constant
Frame rate : 23.976 (24000/1001) FPS
Color space : YUV
Chroma subsampling : 4:2:0
Bit depth : 8 bits
Scan type : Progressive
Bits/(Pixel*Frame) : 0.291
Stream size : 3.99 GiB (61%)
Writing library : x264 core 68 r1179M 96e2229
Encoding settings : cabac=1 / ref=12 / deblock=1:-3:-3 / analyse=0x3:0x133 / me=umh / subme=9 / psy_rd=1.0:0.0 / mixed_ref=1 / me_range=64 / chroma_me=1 / trellis=2 / 8x8dct=1 / cqm=0 / deadzone=21,11 / chroma_qp_offset=-2 / threads=6 / nr=0 / decimate=1 / mbaff=0 / bframes=7 / b_pyramid=1 / b_adapt=2 / b_bias=0 / direct=3 / wpredb=1 / keyint=250 / keyint_min=25 / scenecut=40 / rc=2pass / bitrate=4854 / ratetol=1.0 / qcomp=0.60 / qpmin=10 / qpmax=51 / qpstep=4 / cplxblur=20.0 / qblur=0.5 / ip_ratio=1.40 / pb_ratio=1.30 / aq=1:0.90
Language : English
Default : Yes
Forced : No
Audio #1
ID : 2
Format : AC-3
Format/Info : Audio Coding 3
Format settings, Endianness : Big
Codec ID : A_AC3
Duration : 2 h 1 min
Bit rate mode : Constant
Bit rate : 448 kb/s
Channel(s) : 6 channels
Channel positions : Front: L C R, Side: L R, LFE
Sampling rate : 48.0 kHz
Frame rate : 31.250 FPS (1536 SPF)
Bit depth : 16 bits
Compression mode : Lossy
Stream size : 389 MiB (6%)
Language : Russian
Service kind : Complete Main
Default : Yes
Forced : No
Audio #2
ID : 3
Format : AC-3
Format/Info : Audio Coding 3
Format settings, Endianness : Big
Codec ID : A_AC3
Duration : 2 h 1 min
Bit rate mode : Constant
Bit rate : 448 kb/s
Channel(s) : 6 channels
Channel positions : Front: L C R, Side: L R, LFE
Sampling rate : 48.0 kHz
Frame rate : 31.250 FPS (1536 SPF)
Bit depth : 16 bits
Compression mode : Lossy
Stream size : 389 MiB (6%)
Language : Russian
Service kind : Complete Main
Default : No
Forced : No
Audio #3
ID : 4
Format : AC-3
Format/Info : Audio Coding 3
Format settings, Endianness : Big
Codec ID : A_AC3
Duration : 2 h 1 min
Bit rate mode : Constant
Bit rate : 448 kb/s
Channel(s) : 6 channels
Channel positions : Front: L C R, Side: L R, LFE
Sampling rate : 48.0 kHz
Frame rate : 31.250 FPS (1536 SPF)
Bit depth : 16 bits
Compression mode : Lossy
Stream size : 389 MiB (6%)
Language : Russian
Service kind : Complete Main
Default : No
Forced : No
Audio #4
ID : 5
Format : DTS
Format/Info : Digital Theater Systems
Mode : 16
Format settings, Endianness : Big
Codec ID : A_DTS
Duration : 2 h 1 min
Bit rate mode : Constant
Bit rate : 1 509 kb/s
Channel(s) : 6 channels
Channel positions : Front: L C R, Side: L R, LFE
Sampling rate : 48.0 kHz
Frame rate : 93.750 FPS (512 SPF)
Bit depth : 24 bits
Compression mode : Lossy
Stream size : 1.28 GiB (20%)
Language : English
Default : No
Forced : No
Text #1
ID : 6
Format : UTF-8
Codec ID : S_TEXT/UTF8
Codec ID/Info : UTF-8 Plain Text
Language : Russian
Default : No
Forced : No
Text #2
ID : 7
Format : UTF-8
Codec ID : S_TEXT/UTF8
Codec ID/Info : UTF-8 Plain Text
Language : English
Default : No
Forced : No
..........................BD...........................vs........................DON........................

-
[Профиль] [ЛС]
Показать сообщения:    
Ответить на тему

Текущее время: 20-Фев 06:55

Часовой пояс: UTC + 3



Вы не можете начинать темы
Вы не можете отвечать на сообщения
Вы не можете редактировать свои сообщения
Вы не можете удалять свои сообщения
Вы не можете голосовать в опросах
Вы не можете прикреплять файлы к сообщениям
Вы можете скачивать файлы