BitTorrent клиенты



Мужчина напротив / Le monsieur d'en face (Ален Робийяр / Alain Robillard) [2007, Франция, Швейцария, Бельгия, комедия, мелодрама, TVRip]

Ответить на тему
 
Автор Сообщение

Angel ®

Пол: Не указан

Стаж: 1 год

Сообщений: 1346

Создавать темы 05-Фев-2018 18:09

[Цитировать]

Мужчина напротив / Le monsieur d'en face
Год выпуска: 2007
Страна: Франция, Швейцария, Бельгия
Жанр: комедия, мелодрама
Продолжительность: 1:25:04
Перевод: Профессиональный (многоголосый, закадровый)
Русские субтитры: нет
Режиссер: Ален Робийяр /Alain Robillard
В ролях: Ив Ренье, Ингрид Шовин, Элиотт Парийо, Мари Гийяр, Николас Робийяр, Смади Вольфман, Ребекка Поток, Жан-Франсуа Галло
Описание: Натали тридцать лет, жизнь ее похожа на полосу препятствий. Разрываясь между новой работой, сыном, и платой за парижскую квартиру, которая постоянно накапливается, Натали не может передохнуть. К списку неприятностей, осложняющих её жизнь, следует добавить владельца квартиры, господина Мартена. Жизненные пути Натали и господина Мартена не должны были никогда сблизиться…
Доп. информация: TVRip с телеканала "Домашний"
Качество: TVRip
Формат: AVI
Видео кодек: XviD
Аудио кодек: MP3
Видео: XVID 704x448(1,57:1), 25.00fps, 1020 kbps, 0.13 b\px
Аудио: MPEG Audio Layer 3, 44100Hz, mono 128Kbps

MediaInfo

General
Complete name : H:\torrent\perezaliv\Muzhchina_naprotiv.avi
Format : AVI
Format/Info : Audio Video Interleave
File size : 698 MiB
Duration : 1 h 25 min
Overall bit rate : 1 148 kb/s
Writing library : VirtualDub build 30009/release
Video
ID : 0
Format : MPEG-4 Visual
Format profile : Advanced Simple@L5
Format settings : BVOP2
Format settings, BVOP : 2
Format settings, QPel : No
Format settings, GMC : No warppoints
Format settings, Matrix : Default (H.263)
Muxing mode : Packed bitstream
Codec ID : XVID
Codec ID/Hint : XviD
Duration : 1 h 25 min
Bit rate : 1 010 kb/s
Width : 704 pixels
Height : 448 pixels
Display aspect ratio : 16:10
Frame rate : 25.000 FPS
Color space : YUV
Chroma subsampling : 4:2:0
Bit depth : 8 bits
Scan type : Progressive
Compression mode : Lossy
Bits/(Pixel*Frame) : 0.128
Stream size : 615 MiB (88%)
Writing library : XviD 1.2.1 (UTC 2008-12-04)
Audio
ID : 1
Format : MPEG Audio
Format version : Version 1
Format profile : Layer 3
Codec ID : 55
Codec ID/Hint : MP3
Duration : 1 h 25 min
Bit rate mode : Constant
Bit rate : 128 kb/s
Channel(s) : 1 channel
Sampling rate : 44.1 kHz
Compression mode : Lossy
Stream size : 77.9 MiB (11%)
Alignment : Split accross interleaves
Interleave, duration : 40 ms (1.00 video frame)
Interleave, preload duration : 500 ms
Writing library : LAME3.98.2

Скриншоты

[Профиль] [ЛС]
Показать сообщения:    
Ответить на тему

Текущее время: 23-Фев 00:04

Часовой пояс: UTC + 3



Вы не можете начинать темы
Вы не можете отвечать на сообщения
Вы не можете редактировать свои сообщения
Вы не можете удалять свои сообщения
Вы не можете голосовать в опросах
Вы не можете прикреплять файлы к сообщениям
Вы можете скачивать файлы