Статистика раздачи
Размер:  2,23 GB   |    Зарегистрирован:  9 месяцев 25 дней   |    Скачан:  0 раз

Полного источника не было: Никогда

Личеров:  9  [  0 KB/s  ]  
 
   
 
 

android ®

Пол:
Не указан
Стаж:
9 месяцев 26 дней
Сообщений:
79

- Оригинальное название: Teenage Mutant Ninja Turtles
Русское название [2x2]: Черепашки Ниндзя
Русское название [ЕА]: Черепашки Мутанты Ниндзя
Год выпуска: 1987
Страна: США
Жанр: Мультипликационный сериал, приключения, комедия, семейный.
Продолжительность: 20 минут (серия)
Перевод (озвучание):

  • Профессиональный (полное дублирование) [ЕА],
  • Профессиональный (многолосый закадровый) [ТВИН],
    Режиссёры: Ёшикатсу Касаи и другие.
    Производство: Murakami Wolf Swenson.
    -Производство компании: Murakami Wolf Swenson (позже Fred Wolf)
    Авторы сценария: Дэвид Вайс, Пэт Хауэд
    Художники: Роберт Куэнтис, Лари Хьюстон, Уилл Мэгнеут и другие
    Режиссер: Йошикатсу Касаи
    Музыка: Чак Лори-Роли озвучивали (оригинал): Кэм Кларк, Грег Берг, Таунсенд Коулмэн, Роб Полсен, Рене Джакобс и другие.-Фильм дублирован комапнией ЕА (Екатеринбург Арт)
    Роли дублировали: Всеволод Абдулов, Виктор Петров, Дмитрий Полонский, Владимир Вихров, Александр Соловьёв, Людмила Гнилова, Людмила Ильина, Сергей Чекан, Алексей Инжеватов.-Фильм озвучен компанией ТВИН (Санкт-Петербург)
    Роли озвучивали: Николай Буров, Александр Баргман, Светлана Шейченко, Елена Шульман и другие.
    Описание: Обожаемая детьми во всем мире героическая четверка, полная неукротимой энергии, отправляется в мультприключения, расправляясь с негодяями, выслеживая злодеев и поглощая пиццу в безостановочном темпе. Черепашки ниндзя - мультсериал для всей семьи.- -Над релизом 1-го сезона работали:
    Андрей10 - звуковые дорожки ЕА и ТВИН.
    Gazer - скрипты.
    Учиха Саске - кодирование серий.
    ALEKS KV - синхронизация дорожек.-Качество: DVDRip-AVC
    Формат: MKV
    Видео кодек: h264
    Аудио кодек: AC3
    Видео: MPEG4 Video (H264) 760x576 23.976fps 2200Kbps hi10p
    Аудио (все дорожки): AC3 48000Hz stereo 192kbps-Скриншоты:

    Список серий:

    1 сезон:
    1x01. (01) Turtle Tracks / По следам Черепашек
    1x02. (02) Enter the Shredder / Внимание: Шредер!
    1x03. (03) A Thing About Rats / Кое-что о крысах
    1x04. (04) Hot Rodding Teenagers from Dimension X / Крутые тинейджеры из Измерения Икс
    1x05. (05) Shredder & Splintered / Расщепление Шредера

    Media Info

    Код:General
    Unique ID : 204567425894599294905960054999248762880 (0x99E640CC51B2BD7A99F9F1C7FE537800)
    Complete name : X:\Мультсериалы\Teenage Mutant Ninja Turtles\1 season\001. Turtle Tracks.mkv
    Format : Matroska
    Format version : Version 2
    File size : 458 MiB
    Duration : 22mn 50s
    Overall bit rate : 2 800 Kbps
    Encoded date : UTC 2013-02-28 15:23:33
    Writing application : mkvmerge v3.2.0 ('Beginnings') built on Feb 12 2010 16:46:17
    Writing library : libebml v0.7.9 + libmatroska v0.8.1
    Video
    ID : 1
    Format : AVC
    Format/Info : Advanced Video Codec
    Format profile : High 10@L4.1
    Format settings, CABAC : Yes
    Format settings, ReFrames : 8 frames
    Codec ID : V_MPEG4/ISO/AVC
    Duration : 22mn 50s
    Bit rate : 2 169 Kbps
    Width : 760 pixels
    Height : 576 pixels
    Display aspect ratio : 4:3
    Frame rate mode : Constant
    Frame rate : 23.976 fps
    Color space : YUV
    Chroma subsampling : 4:2:0
    Bit depth : 10 bits
    Scan type : Progressive
    Bits/(Pixel*Frame) : 0.207
    Stream size : 354 MiB (77%)
    Writing library : x264 core 129 r2245+729M 1a52e03
    Encoding settings : cabac=1 / ref=8 / deblock=1:-3:-3 / analyse=0x3:0x133 / me=umh / subme=9 / psy=1 / fade_compensate=0.00 / psy_rd=0.80:0.00 / mixed_ref=1 / me_range=32 / chroma_me=1 / trellis=2 / 8x8dct=1 / cqm=0 / deadzone=21,11 / fast_pskip=0 / chroma_qp_offset=-2 / threads=6 / lookahead_threads=1 / sliced_threads=0 / nr=0 / decimate=0 / interlaced=0 / bluray_compat=0 / constrained_intra=0 / fgo=0 / bframes=12 / b_pyramid=2 / b_adapt=2 / b_bias=0 / direct=1 / weightb=1 / open_gop=0 / weightp=2 / keyint=240 / keyint_min=24 / scenecut=40 / intra_refresh=0 / rc=crf / mbtree=0 / crf=19.0 / qcomp=0.75 / qpmin=8 / qpmax=81 / qpstep=4 / ip_ratio=1.40 / pb_ratio=1.30 / aq=1:0.90
    Language : English
    Default : No
    Forced : No
    Matrix coefficients : BT.709
    Audio #1
    ID : 2
    Format : AC-3
    Format/Info : Audio Coding 3
    Mode extension : CM (complete main)
    Format settings, Endianness : Big
    Codec ID : A_AC3
    Duration : 22mn 50s
    Bit rate mode : Constant
    Bit rate : 192 Kbps
    Channel(s) : 2 channels
    Channel positions : Front: L R
    Sampling rate : 48.0 KHz
    Bit depth : 16 bits
    Compression mode : Lossy
    Stream size : 31.4 MiB (7%)
    Title : ЕА
    Language : Russian
    Default : Yes
    Forced : No
    Audio #2
    ID : 3
    Format : AC-3
    Format/Info : Audio Coding 3
    Mode extension : CM (complete main)
    Format settings, Endianness : Big
    Codec ID : A_AC3
    Duration : 22mn 50s
    Bit rate mode : Constant
    Bit rate : 192 Kbps
    Channel(s) : 2 channels
    Channel positions : Front: L R
    Sampling rate : 48.0 KHz
    Bit depth : 16 bits
    Compression mode : Lossy
    Stream size : 31.4 MiB (7%)
    Title : Neva-1
    Language : Russian
    Default : No
    Forced : No
    Audio #3
    ID : 4
    Format : AC-3
    Format/Info : Audio Coding 3
    Mode extension : CM (complete main)
    Format settings, Endianness : Big
    Codec ID : A_AC3
    Duration : 22mn 50s
    Bit rate mode : Constant
    Bit rate : 192 Kbps
    Channel(s) : 2 channels
    Channel positions : Front: L R
    Sampling rate : 48.0 KHz
    Bit depth : 16 bits
    Compression mode : Lossy
    Stream size : 31.4 MiB (7%)
    Title : English
    Language : English
    Default : No
    Forced : No
    [www.cybertorrent.ru].t1503.torrent 
    Торрент: Зарегистрирован [ 2018-02-16 06:54 ] · 7D5CAE606C8D6B383CE35E348ECB09FE9519C825

    Скачать .torrent

    Скачать

    12 KB

    Статус: проверено
    Скачан: 0 раз
    Размер: 2,23 GB
  • Профиль [ЛС]
    Показать сообщения:    

    Текущее время: 13-Дек 16:29

    Часовой пояс: UTC ± 0



    Вы не можете начинать темы
    Вы не можете отвечать на сообщения
    Вы не можете редактировать свои сообщения
    Вы не можете удалять свои сообщения
    Вы не можете голосовать в опросах
    Вы не можете прикреплять файлы к сообщениям
    Вы можете скачивать файлы
    Torrents24.ru открытый BitTorrent Torrents24.pl открытый BitTorrent CyberTorrent.ru открытый BitTorrent BtList.ru рейтинг BitTorrent трекеров Яндекс.Метрика