Статистика раздачи
Размер:  1,58 GB   |    Зарегистрирован:  9 месяцев 25 дней   |    Скачан:  0 раз

Полного источника не было: Никогда

Личеров:  10  [  0 KB/s  ]  
 
   
 
 

antikvar ®

Пол:
Не указан
Стаж:
9 месяцев 26 дней
Сообщений:
50

-Непобедимый Спайдермен / Spider-Man Unlimited Страна: США
Жанр: Мультпликационный сериал, приключения, фантастика, экранизация комикса MARVEL
Сезон: 1
Количество серий: 6 из 13
Продолжительность 1 серии: 00:20:00
Год выпуска: 1999
Перевод: Профессиональный (дублированный)
Русские субтитры: нет-Режиссёры: Ави Арад, Вилл Меньё
Исполнительные продюсеры: Ави Арад, Эрик С. Роллман-Роли озвучивали:
Рино Романо (Питер Паркер), Акико Морисон (доктор Наоко Ямада-Джонс), Ричард Ньюман (Высший Разум), Джон Пейн (Джон Джеймсон), Рон Хелдер (Сэр Баран), Кимберли Хоторн (Карен Омейли), Кристофер Джез (Бромли), Таша Симс (Леди Урса), Девид Соболов (Лорд Тигр), Дженифер Хейл (Леди Гадюка).-Описание:
Непобедимый Спайдермен (Spider-Man Unlimited) является одной из телевизионных версий Человека-паука. Мультсериал можно считать продолжением оригинального мультсериала 1994 года Человек-паук (Spider-Man TAS).
Астронавт Джон Джеймсон, сын Джона Джеймсона, отправляется на точную копию нашей планеты - Анти-Землю. Неожиданно на корабль проникают симбиоты Желчный и Кровавый. Питер пытается спасти Джона, но ему это не удается. Через несколько недель по телевизору показывают экстренное сообщение Джона с Анти-Земли. Понимая что ему нужна помощь, Питер разрабатывает усовершенствованный костюм и отправляется на Анти-Землю. После прибытия на Анти-Землю обнаруживает, что половина населения Анти-Земли - зверяне, а правитель этого мира - человек, названный Высшим Разумом. На протяжении всего сериала Питер борется с рыцарями Высшего Разума и симбиотами. Также у него появляются друзья - Наоко Ямада-Джонс, ее сын Шейн и мятежники Джон Джеймсон, Гит Хоскинс, Карен Омейли, Дарвуд Бромли и Гоблин (Гектор Джонс).-Доп. информация:
Русская звуковая дорожка была взята из этой раздачи.
Все раздачи мультсериала
Sample
Качество: WEBRip (исходник WEBRip 720p c YouTube)
Формат: AVI
Видео кодек: XviD
Аудио кодек: MP3
Видео: 720x536 (1.34:1), 25 fps, XviD build 50 ~1520 kbps avg, 0.13 bit/pixel
Аудио 1: 48 kHz, MPEG Layer 3, 2 ch, ~128.00 kbps avg [русская дорожка]
Аудио 2: 48 kHz, MPEG Layer 3, 2 ch, ~192.00 kbps avg [английская дорожка]

Список серий

01. Worlds Apart. Part 1 - Разделенные миры. Часть 1
02. Worlds Apart. Part 2 - Разделенные миры. Часть 2
03. Where Evil Nests - Где обитает зло
04. Deadly Choices - Смертельные номера
05. Steel Cold Heart - Стальное сердце
06. Enter the Hunter - Охотник приходит

Подробные технические данные

Формат : AVI
Формат/Информация : Audio Video Interleave
Размер файла : 270 Мбайт
Продолжительность : 20 м.
Общий поток : 1862 Кбит/сек
Программа кодирования : VirtualDubModRus 1.5.10.2 (build 2540/release)
Библиотека кодирования : VirtualDubMod build 2540/release
Видео
Идентификатор : 0
Формат : MPEG-4 Visual
Профиль формата : Advanced Simple@L5
Параметр BVOP формата : 1
Параметр QPel формата : Нет
Параметр GMC формата : Без точки перехода
Параметр матрицы формата : Default (MPEG)
Идентификатор кодека : XVID
Идентификатор кодека/Подсказка : XviD
Продолжительность : 20 м.
Битрейт : 1527 Кбит/сек
Ширина : 720 пикс.
Высота : 536 пикс.
Соотношение сторон : 4:3
Частота кадров : 25,000 кадр/сек
Цветовое пространство : YUV
Подвыборка цветности : 4:2:0
Битовая глубина : 8 бит
Тип развёртки : Прогрессивная
Метод сжатия : С потерями
Бит/(Пиксели*Кадры) : 0.158
Размер потока : 221 Мбайт (82%)
Библиотека кодирования : XviD 1.2.1 (UTC 2008-12-04)
Аудио #1
Идентификатор : 1
Формат : MPEG Audio
Версия формата : Version 1
Профиль формата : Layer 3
Режим : Joint stereo
Расширение режима : MS Stereo
Идентификатор кодека : 55
Идентификатор кодека/Подсказка : MP3
Продолжительность : 20 м.
Вид битрейта : Постоянный
Битрейт : 128 Кбит/сек
Канал(ы) : 2 канала(ов)
Частота : 48,0 КГц
Метод сжатия : С потерями
Размер потока : 18,6 Мбайт (7%)
Выравнивание : Соединение по промежуткам
Продолжительность промежутка : 40 мс. (1,00 видеокадр)
Время предзагрузки промежутка : 504 ms
Аудио #2
Идентификатор : 2
Формат : MPEG Audio
Версия формата : Version 1
Профиль формата : Layer 3
Режим : Joint stereo
Идентификатор кодека : 55
Идентификатор кодека/Подсказка : MP3
Продолжительность : 20 м.
Вид битрейта : Постоянный
Битрейт : 192 Кбит/сек
Канал(ы) : 2 канала(ов)
Частота : 48,0 КГц
Метод сжатия : С потерями
Размер потока : 27,8 Мбайт (10%)
Выравнивание : Соединение по промежуткам
Продолжительность промежутка : 40 мс. (1,00 видеокадр)
Время предзагрузки промежутка : 504 ms

Скриншоты

[www.cybertorrent.ru].t1442.torrent 
Торрент: Зарегистрирован [ 2018-02-16 03:41 ] · 0BDA291262A535262BEEDD4D257C651ED6088653

Скачать .torrent

Скачать

17 KB

Статус: проверено
Скачан: 0 раз
Размер: 1,58 GB
Профиль [ЛС]
Показать сообщения:    

Текущее время: 13-Дек 16:07

Часовой пояс: UTC ± 0



Вы не можете начинать темы
Вы не можете отвечать на сообщения
Вы не можете редактировать свои сообщения
Вы не можете удалять свои сообщения
Вы не можете голосовать в опросах
Вы не можете прикреплять файлы к сообщениям
Вы можете скачивать файлы
Torrents24.ru открытый BitTorrent Torrents24.pl открытый BitTorrent CyberTorrent.ru открытый BitTorrent BtList.ru рейтинг BitTorrent трекеров Яндекс.Метрика