BitTorrent клиенты



Как трусливый Роберт Форд убил Джесси Джеймса / Assassination of Jesse James by the Coward Robert Ford, The (Эндрю Доминик / Andrew Dominik) [2007, США, драма, криминал, WEB-DLRip] [Open Matte] 2x MVO + DVO + AVO + Sub (Rus, Eng) + Original Eng

Ответить на тему
 
Автор Сообщение

Angel ®

Пол: Не указан

Стаж: 1 год

Сообщений: 1346

Создавать темы 05-Фев-2018 18:15

[Цитировать]

Как трусливый Роберт Форд убил Джесси Джеймса / The Assassination of Jesse James by the Coward Robert Ford
Год выпуска: 2007
Страна: США, Канада
Жанр: драма, биография, криминал
Продолжительность: 02:39:49
Перевод: Профессиональный (многоголосый, закадровый) | R5
Перевод: Профессиональный (многоголосый, закадровый) | Киномания
Перевод: Профессиональный (двухголосый закадровый) | П. Гланц и И. Королева
Перевод: Авторский (одноголосый закадровый) | Ю.Сербин
Субтитры: русские, английские
Оригинальная аудиодорожка: английский-Режиссер: Эндрю Доминик / Andrew Dominik-В ролях: Брэд Питт, Кейси Аффлек, Сэм Рокуэлл, Мэри-Луиз Паркер, Бруклин Пру, Дастин Боллинджер, Джереми Реннер, Сэм Шепард, Гаррет Диллахант, Пол Шнайдер, Джоэль МакНикол, Джеймс Дефеличе, Дж.С. Робертс, Джонатан Эрих Дреченберг, Торбен Хансен, Элисон Эллиотт, Лоурен Кэлверт, Кэйлин Си, Том Элдридж, Джесси Фречетт, Пэт Хили, Майкл Паркс, Тед Левайн, Джоэль Дункан, Джеймс Карвилл, Адам Арлюкевич, Йен Феррье, Майкл Роджерс, Сара Линд, Ник Кейв, Мэттью Уолкер, Зои Дешанель, Майкл Коупмен, Ларисса Янчак, Хью Росс-Описание: История самого печально известного преступника Америки времен Дикого Запада. Дерзкий и непредсказуемый Джесси Джеймс — легендарный вор. Он всегда тщательно планирует свои нападения, и ведет войну с теми, кто наживает деньги и славу, прикрываясь его именем.
В 1881 году в ряды банды Джеймса вступает Роберт Форд. Со временем Джесси падает в глазах Форда, который никогда не отличался смелостью. Никто и не мог предположить, что именно этот трусливый юнец, возмущенный поведением главаря, отважится на убийство Джесси.-Качество: WEB-DLRip | The.Assassination.of.Jesse.James.by.the.Coward.Robert.Ford.2007.Open.Matte.1080p.WEB-DL.4xRus.Eng.BLUEBIRD
Формат: AVI
Видео: 720x400 (1.80:1), 23.976 fps, XviD build 67 ~1455 kbps avg, 0.21 bit/pixel
Аудио: 48 kHz, AC3 Dolby Digital, 3/2 (L,C,R,l,r) + LFE ch, ~384 kbps | R5
Аудио: 48 kHz, AC3 Dolby Digital, 3/2 (L,C,R,l,r) + LFE ch, ~384 kbps | Киномания
Аудио: 48 kHz, AC3 Dolby Digital, 3/2 (L,C,R,l,r) + LFE ch, ~384 kbps | Original-Отдельно
Аудио: 48 kHz, AC3 Dolby Digital, 3/2 (L,C,R,l,r) + LFE ch, ~448 kbps | П. Гланц и И. Королева
Аудио: 48 kHz, AC3 Dolby Digital, 3/2 (L,C,R,l,r) + LFE ch, ~448 kbps | Ю.Сербин-Сэмпл-

BDRip vs Open Matte



MI

Код:Format : AVI
Format/Info : Audio Video Interleave
Format profile : OpenDML
File size : 2.92 GiB
Duration : 2 h 39 min
Overall bit rate : 2 614 kb/s
Writing application : VirtualDubMod 1.5.10.2 (build 2542/release)
Writing library : VirtualDubMod build 2542/release
Video
ID : 0
Format : MPEG-4 Visual
Format profile : Advanced Simple@L5
Format settings : BVOP1 / Custom Matrix
Format settings, BVOP : 1
Format settings, QPel : No
Format settings, GMC : No warppoints
Format settings, Matrix : Custom
Codec ID : XVID
Codec ID/Hint : XviD
Duration : 2 h 39 min
Bit rate : 1 442 kb/s
Width : 720 pixels
Height : 400 pixels
Display aspect ratio : 16:9
Frame rate : 23.976 (24000/1001) FPS
Color space : YUV
Chroma subsampling : 4:2:0
Bit depth : 8 bits
Scan type : Progressive
Compression mode : Lossy
Bits/(Pixel*Frame) : 0.209
Stream size : 1.61 GiB (55%)
Writing library : XviD 67
Audio #1
ID : 1
Format : AC-3
Format/Info : Audio Coding 3
Codec ID : 2000
Duration : 2 h 39 min
Bit rate mode : Constant
Bit rate : 384 kb/s
Channel(s) : 6 channels
Channel positions : Front: L C R, Side: L R, LFE
Sampling rate : 48.0 kHz
Frame rate : 31.250 FPS (1536 SPF)
Bit depth : 16 bits
Compression mode : Lossy
Stream size : 439 MiB (15%)
Alignment : Split accross interleaves
Interleave, duration : 42 ms (1.00 video frame)
Interleave, preload duratio : 500 ms
Service kind : Complete Main
Audio #2
ID : 2
Format : AC-3
Format/Info : Audio Coding 3
Codec ID : 2000
Duration : 2 h 39 min
Bit rate mode : Constant
Bit rate : 384 kb/s
Channel(s) : 6 channels
Channel positions : Front: L C R, Side: L R, LFE
Sampling rate : 48.0 kHz
Frame rate : 31.250 FPS (1536 SPF)
Bit depth : 16 bits
Compression mode : Lossy
Stream size : 439 MiB (15%)
Alignment : Split accross interleaves
Interleave, duration : 42 ms (1.00 video frame)
Interleave, preload duratio : 500 ms
Service kind : Complete Main
Audio #3
ID : 3
Format : AC-3
Format/Info : Audio Coding 3
Codec ID : 2000
Duration : 2 h 39 min
Bit rate mode : Constant
Bit rate : 384 kb/s
Channel(s) : 6 channels
Channel positions : Front: L C R, Side: L R, LFE
Sampling rate : 48.0 kHz
Frame rate : 31.250 FPS (1536 SPF)
Bit depth : 16 bits
Compression mode : Lossy
Stream size : 439 MiB (15%)
Alignment : Split accross interleaves
Interleave, duration : 42 ms (1.00 video frame)
Interleave, preload duratio : 500 ms
Service kind : Complete Main

Скриншоты

[Профиль] [ЛС]
Показать сообщения:    
Ответить на тему

Текущее время: 20-Фев 06:56

Часовой пояс: UTC + 3



Вы не можете начинать темы
Вы не можете отвечать на сообщения
Вы не можете редактировать свои сообщения
Вы не можете удалять свои сообщения
Вы не можете голосовать в опросах
Вы не можете прикреплять файлы к сообщениям
Вы можете скачивать файлы