Статистика раздачи
Размер:  6,62 GB   |    Зарегистрирован:  8 месяцев 6 дней   |    Скачан:  0 раз
Сидов:  2  [  0 KB/s  ]  
 
   
 
 

irkutsk ®

Пол:
Не указан
Стаж:
8 месяцев 7 дней
Сообщений:
620

Южный Парк / South Park- -Год выпуска: 2011
Страна: США | Comedy Central
Жанр: мультфильм, комедия
Продолжительность: ~ 22 мин. серия
Перевод: Любительский (одноголосый закадровый) /L0cDoG/
Русские субтитры: нет
Режиссёр: Мэтт Стоун, Трей Паркер-Роли озвучивали: Трей Паркер, Мэтт Стоун, Мона Маршалл, Элиза Шнайдер, Эйприл Стюарт, Дженнифер Хауэлл, Мэри Кэй Бергман, Эдриан Бирд, Кайл Маккаллок-Описание: Южный парк — американский мультсериал, созданный Мэттом Стоуном и Треем Паркером. Выпускается кабельным телеканалом Comedy Central с 1997 г. Основу сюжета составляют сюрреалистические приключения четырёх мальчиков и их друзей, живущих в маленьком городке Саут-Парк, штат Колорадо. Сериал высмеивает американскую культуру и текущие мировые события, а также подвергает критике множество глубоких убеждений и табу, благодаря пародии и чёрному юмору.-Все раздачи мультсериала: http://cybertorrent.ru/tracker.php?f=927
Семпл: http://multi-up.com/481238-За звук ОГРОМНОЕ СПАСИБО L0cDoG-Качество: HDTV 720p
Формат: MKV
Видео: AVC at ~3128 Кбит/сек 1280 x 720 (1.778) at 23.976 fps, 0.142 bit/pixel
Аудио: Dolby Digital, 2.0, 48 kHz, 192 kbps |L0cDoG|
Аудио: Dolby Digital, 2.0, 48 kHz, 384 kbps |Оригинал|--

Список серий

- 27.04.2011 01 - Human CentiPad / ЧеловекАЙПАДоножка
  • Кайл принимает участие в разработке нового революционного продукта, называющегося HumancentiPad. А Картман, между тем, единственный среди мальчиков без iPad.-- 04.05.2011 02 - Funnybot / Смехобот
  • Джимми ведёт первое ежегодное награждение Comedy Awards за награду - самый смешной ребёнок школы. А тем временем, немцы не довольны заявлением в их адрес, что они самая не смешная нация в мире.-- 11.05.2011 03 - Royal Pudding / Королевский пудинг
  • Наступило радостное время для всех канадцев, ведь скоро грядёт королевская свадьба. Но как только принц и принцесса собираются соединить свои узы на века, принцессу похищают. Все канадцы призваны придти на помощь для спасения принцессы. И Айк отвечает на призыв к оружию.-- 18.05.2011 04 - T.M.I. / T.M.I.
  • Картман в бешенстве, на доске школьных объявлений были обнародованы размеры члена всех мальчиков. После очередной вспышки ярости, его отправляют на терапию по Управлению Гневом.-- 26.05.2011 05 - Crack Baby Athletic Association / Спортивная ассоциация наркозависимых детей
  • Кайл попадает на новое коммерческое предприятие Картмана - Дети наркоманы играющие в баскетбол.-- 01.06.2011 06 - City Sushi / Сити Суши
  • Баттерсу поставили диагноз - "раздвоение личности". Парни хотят помочь ему, узнать что в действительности с ним происходит, но Баттерсу не нравится то, что они в итоге обнаруживают.-- 08.06.2011 07 - You're Getting Old / Старый ты стал
  • Сразу после 10-ого дня рождения Стена, его мировоззрение начинает меняться, сказываясь на дружбе с пацанами. А тем времен, Рэнди и Шерон спорят о музыкальных вкусах сына.-- 05.10.2011 08 - Ass Burgers / Ассбургеры
  • Картман находит уникальный способ борьбы с синдромом Аспергера. Даже Кайл и Кенни поддерживают его. А тем времени Стэн не может вернуться к нормальной жизни, как бы он не старался. Будет ли снова в Южном Парке всё как прежде?-- 12.10.2011 09 - The Last of the Meheecans / Последний из Мексикан
  • Всё что казалось невинной игрой между парнями, перерастает в большую проблему, после того, как Картман вступает в пограничный патруль США. И, разумеется, не удивительно то, что Картман ловко справляется со своими обязанностями.-- 19.10.2011 10 - Bass to Mouth / На крючке
  • Ученики Начальной школы Саус Парка стали жертвами нового сплетнического Веб-сайта. Неуловимый хакер каким-то образом получил доступ к конфиденциальным телефонным звонкам, электронным письмам учеников и размещает все их личные пикантные истории. Мальчики были шокированы, когда они обнаруживают личность хакера.-- 26.10.2011 11 - Broadway Bro Down / БРАТВей
  • Шерон рада, что Рэнди старается уделять ей внимание. Но после того, как он сводил ее на мюзикл в Денвере, Рэнди становится большим фанатом Бродвея. Рэнди везёт Шерон в Нью-Йорк, на посещение всех мюзиклов Бродвея.-- 02.11.2011 12 - 1% / 1%
  • Дети из школы Саус Парка, наказывают Картмана за его косяки. Что делать Эрику, когда против него все восстали?-- 09.11.2011 13 - A History Channel Thanksgiving / День Благодарения на Историческом канале
  • После просмотра специального выпуска посвящённому Дню Благодарения на канале Истории, парни начинают верить в то, что праздник зародился не без помощи пришельцев. Но вопрос остаётся открытым, состоялся ли на самом деле ужин на День Благодарения? Повлияло ли вмешательство пришельцев на всё это? И правда ли, что День Благодарения, может изменить каждого?-- 16.11.2011 14 - The Poor Kid / Бедный ребенок
  • Кенни с братом и сестрой отправляют в приёмную семью, поскольку его родителей посадили в тюрьму. Картман начинает беспокоиться, когда Кенни действительно увозят, потому что теперь он не знает на ком отыгрываться в школе за их бедноту.
  • Скриншоты

    [/url]
    - Как закачать отдельный файл из торрента или докачать ранее пропущенные файлы торрента! -

    MI

    Код:General
    Complete name : E:\South.Park.S15E01.720p.HDTV.X264-DIMENSION (1).mkv
    Format : Matroska
    File size : 588 MiB
    Duration : 21mn 45s
    Overall bit rate : 3 779 Kbps
    Encoded date : UTC 2011-04-29 07:05:00
    Writing application : mkvmerge v3.3.0 ('Language') built on Mar 24 2010 14:59:24
    Writing library : libebml v0.8.0 + libmatroska v0.9.0
    Video
    ID : 1
    Format : AVC
    Format/Info : Advanced Video Codec
    Format profile : High@L3.1
    Format settings, CABAC : Yes
    Format settings, ReFrames : 4 frames
    Muxing mode : Container profile=Unknown@3.1
    Codec ID : V_MPEG4/ISO/AVC
    Duration : 21mn 44s
    Bit rate : 3 128 Kbps
    Nominal bit rate : 3 203 Kbps
    Width : 1 280 pixels
    Height : 720 pixels
    Display aspect ratio : 16:9
    Frame rate : 23.976 fps
    Resolution : 8 bits
    Colorimetry : 4:2:0
    Scan type : Progressive
    Bits/(Pixel*Frame) : 0.142
    Stream size : 486 MiB (83%)
    Writing library : x264 core 104 r1703 cd21d05
    Encoding settings : cabac=1 / ref=3 / deblock=1:0:0 / analyse=0x3:0x113 / me=umh / subme=6 / psy=1 / psy_rd=1.00:0.00 / mixed_ref=0 / me_range=16 / chroma_me=1 / trellis=1 / 8x8dct=1 / cqm=0 / deadzone=21,11 / fast_pskip=1 / chroma_qp_offset=-2 / threads=20 / sliced_threads=0 / nr=0 / decimate=1 / interlaced=0 / constrained_intra=0 / bframes=3 / b_pyramid=2 / b_adapt=1 / b_bias=0 / direct=1 / weightb=1 / open_gop=0 / weightp=2 / keyint=250 / keyint_min=23 / scenecut=40 / intra_refresh=0 / rc=2pass / mbtree=0 / bitrate=3203 / ratetol=1.0 / qcomp=0.60 / qpmin=10 / qpmax=51 / qpstep=4 / cplxblur=20.0 / qblur=0.5 / ip_ratio=1.40 / pb_ratio=1.30 / aq=1:1.00
    Language : English
    Audio #1
    ID : 2
    Format : AC-3
    Format/Info : Audio Coding 3
    Codec ID : A_AC3
    Duration : 21mn 45s
    Bit rate mode : Constant
    Bit rate : 192 Kbps
    Channel(s) : 2 channels
    Channel positions : L R
    Sampling rate : 48.0 KHz
    Stream size : 29.9 MiB (5%)
    Language : Russian
    Audio #2
    ID : 3
    Format : AC-3
    Format/Info : Audio Coding 3
    Codec ID : A_AC3
    Duration : 21mn 45s
    Bit rate mode : Constant
    Bit rate : 384 Kbps
    Channel(s) : 2 channels
    Channel positions : L R
    Sampling rate : 48.0 KHz
    Stream size : 59.8 MiB (10%)
    Language : English

    Внимание! Раздача ведётся путём добавления новых серий!

    Внимание! Раздача ведётся путём добавления новых серий; при каждом добавлении создётся новый торрент. Чтобы начать докачку новой серии, пользователям необходимо сделать следующее:
    (1) остановить скачивание,
    (2) удалить старый торрент у себя из клиента (старые серии удалять не надо),
    (3) скачать новый торрент и запустить его у себя в клиенте вместо старого, при этом указать клиенту путь в старую папку куда и должно происходить скачивание новых серий.
    Ваш клиент при этом должен произвести хеширование (проверку) старой папки (если не производит сам - помогите ему сделать это), и будет докачивать только те серии которых у вас ещё нет. Старые серии при этом не удаляются, а продолжают раздаваться!
    Eсли вы уже удалили старые серии, то предотвратить повторную закачку старых серий можно, отжав галочку в соответсвующих местах при запуске нового торрента.
    --
    [www.cybertorrent.ru].t1429.torrent 
    Торрент: Зарегистрирован [ 2018-02-16 03:41 ] · 6FAFCD97BC16750AE356F197FD9F49E20F0B4CA9

    Скачать .torrent

    Скачать

    35 KB

    Статус: проверено
    Скачан: 0 раз
    Размер: 6,62 GB
    Профиль [ЛС]
    Показать сообщения:    

    Текущее время: 22-Окт 23:13

    Часовой пояс: UTC ± 0



    Вы не можете начинать темы
    Вы не можете отвечать на сообщения
    Вы не можете редактировать свои сообщения
    Вы не можете удалять свои сообщения
    Вы не можете голосовать в опросах
    Вы не можете прикреплять файлы к сообщениям
    Вы можете скачивать файлы
    Torrents24.ru открытый BitTorrent Torrents24.pl открытый BitTorrent CyberTorrent.ru открытый BitTorrent BtList.ru рейтинг BitTorrent трекеров Яндекс.Метрика