Статистика раздачи
Размер:  10,48 GB   |    Зарегистрирован:  6 месяцев 4 дня   |    Скачан:  0 раз

Полного источника не было: Никогда

Личеров:  5  [  0 KB/s  ]  
 
   
 
 

irkutsk ®

Пол:
Не указан
Стаж:
6 месяцев 4 дня
Сообщений:
620

Южный Парк / South Park
Сезоны: 14 и 15
Годы выпуска: 2010-2011
Страна: США
Жанр: комедия, мультсериал
Продолжительность: 28 серий * ~ 22 минуты, бонусы
Перевод:
Профессиональный (двухголосый закадровый) 2x2 - Мария Трындяйкина и Евгений Рыбов (кроме 5 и 6 серий 14 сезона)
Профессиональный (двухголосый закадровый) Студия "Кубик в Кубе" (только 5 и 6 серии 14 сезона)
Профессиональный (многоголосый закадровый) украинский KER Production, FiliZa Studio & МТВ Украина (только 14 сезон)
А также оригинальная английская звуковая дорожка
Русские субтитры: LazyMax, Chaka и другие авторы
Английские субтитры: есть
Режиссёры: Трэй Паркер и Мэт Стоун / Trey Parker & Matt Stone
Роли озвучивали: Мэт Стоун, Трэй Паркер, Эйприл Стюарт, Мона Маршалл, Эдриен Бирд, Вернон Четмэн, Илана Коон, Лиза Донован, Роберт Эрнст, Кэти Фэрис, Хитер Дженкинс, Крэг ЛаМарш, Лондон Куинси, Себастьян Ю, Александра Мейер, Джордж Уайет, Ситэн Уэнблай, Уилльямс, Эделин Олгуд, Джошуа Кай, Джессика Тупас, Мэйсон МакНалти, Лиам Куинси, Джесси Джо Томас, Эйва Домини, Дэниэл Грегори, Арман Саркуб, Сефира Стрит, Молли Пасутти, Билл Хейдер, Эдуардо Альварадо, Андрэс Арготэ, Лухан, Луис Валенсия, Адриана Янез, Милли Оливер, Брэд Пейсли, Роберт Лопес, Дэвид Бёрнхэм, Тамара Дамиано, Кейт Пазакис, Люшиос Посэ, Фрэд Лиланд, Майкл Бенет, Патрик Лэндер, Набулунги Хатимби, Крис Борковец, Киара Лисетте Гамбоа, Селесте Хавьер и Калеб Ратледж
Описание: Телеканал 2x2 продолжил традицию русской службы МТВ и с 1 апреля 2011 года запустил в эфир 14-й сезон Саут Парк. В сезоне 14 серий - таким он задумывался авторами, поэтому никто иной по чьей-либо прихоти не может это менять, особенно, если эта прихоть исходит от СМИ! 1405 и 1406 серии - одни из самых удачных в сезоне. Здесь находят своё логическое завершение сюжетные линии, начатые много лет тому назад: "Кто отец Картмэна?" (последний эпизод первого сезона - 1998 год), "Скотт Тенорман" (первый эпизод пятого сезона - 2001 год), "Рыжие дети" (11-й эпизод девятого - 2005 год) и т.д. Сериал действительно можно смотреть вразнобой, но без этих эпизодов вряд ли получится правильно понять последующие повороты... 5-я серия сезона ("200") - юбилейная. А выбрасывать на помойку подарок - самое последнее дело! По всему этому в раздачу добавлены 1405 и 1406 эпизоды в озвучке Студии "Кубик в Кубе".
А в субботу 12 ноября 2011 года за несколько дней до премьеры последнего эпизода 15-го сезона Саут Парк в США телеканал 2x2 неожиданно шустро продемонстрировал нам первые две серии этого сезона в своём переводе и озвучке. Подобная скорость наблюдается впервые в российской истории этого мультсериала.
Дополнительная информация: Видео кодировалось с Blu-ray дисков с максимальными настройками качества x264 в режиме заданного постоянного параметра квантования QP=18 (14-й сезон) и постоянного значения оценки CRF=15-17 (15-й сезон).
Английские аудиодорожки в формате Dolby 5.1 Ac3 лежат отдельными файлами в папках с аналогичным названием.
Бонус 2 - 6 дней перед эфиром: как делают Саут Парк (За кулисами эпизода "Человеческая МногоПЕДка") - на Dvd и на Blu-ray диске 15-сезона действительно представлен в варианте без цензуры, то есть многочисленные "f*ck" не запиканы, но почему-то записан в моно! Поэтому я добавил к нему вторую английскую дорожку из HDTV - там стерео, но матюки запиканы...
Бонус 4 - За кулисами эпизода "Стареешь" - на официальных дисках 15-го не записан, поэтому он выложен в версии рипа с сайта SPS.

Список эпизодов

14-й сезон (эфир: март - ноябрь 2010 г.)
1401 Сексуальное исцеление / Sexual Healing (2x2, Ukr, Eng, [Sub: Chaka, Eng])
1402 История о Жопе Мак-Яйцеглисте / The Tale of Scrotie McBoogerballs (2x2, Ukr, Eng, [Sub: Chaka, Eng])
1403 Лечебные жареные цыплята / Medicinal Fried Chicken (2x2, Ukr, Eng, [Sub: Chaka, Eng])
1404 У Вас 0 друзей / You Have 0 Friends (2x2, Ukr, Eng, [Sub: Chaka & Haze, Eng])
1405 200 (Кубик в Кубе, Ukr, Eng, [Sub: LazyMax, Chaka & Haze, Eng])
1406 201 (Кубик в Кубе, Ukr, Eng, [Sub: LazyMax, Verdy & Co., Eng])
1407 Искалеченное лето / Crippled Summer (2x2, Ukr, Eng, [Sub: Verdy & Co., Eng])
1408 Бедный и тупой / Poor and Stupid (2x2, Ukr, Eng, [Sub: LazyMax, Eng])
1409 Хрень в стиле Джерси / It's a Jersey Thing (2x2, Ukr, Eng, [Sub: LazyMax, Eng])
1410 Мычало / Insheeption (2x2, Ukr, Eng, [Sub: LazyMax, Eng])
1411 Енот 2: Очевидность / Coon 2: Hindsight (2x2, Ukr, Eng, [Sub: LazyMax, Eng])
1412 Енот 3: Восхождение Мистериона / Mysterion Rises (2x2, Ukr, Eng, [Sub: LazyMax, Eng])
1413 Енот 4: Енот против друзей Енота / Coon vs. Coon & Friends (2x2, Ukr, Eng, [Sub: LazyMax, Eng])
1414 Crème Fraîche (2x2, Ukr, Eng, [Sub: LazyMax, Eng])
Бонус - Удалённые сцены / Deleted Scenes (Eng, [Sub: Chaka, Eng])
15-й сезон (эфир: апрель - ноябрь 2011 г.)
1501 Человеческая МногоПЕДка / HUMANCENTiPAD (2x2, Eng, [Sub: LazyMax, Eng])
1502 Смехобот / Funnybot (2x2, Eng, [Sub: LazyMax, Eng])
1503 Королевская сва...фля / Royal Pudding (2x2, Eng, [Sub: LazyMax, Eng])
1504 И.Р.П. / T.M.I. (2x2, Eng, [Sub: LazyMax, Eng])
1505 Спортивная ассоциация крэк-зависимых младенцев / Crack Baby Athletic Association (2x2, Eng, [Sub: LazyMax, Eng])
1506 Ганьван Суши / City Sushi (2x2, Eng, [Sub: LazyMax, Eng])
1507 Стареешь / You're Getting Old (2x2, Eng, [Sub: LazyMax, Eng])
1508 Ассбургеры / Ass Burgers (2x2, Eng, [Sub: LazyMax, Eng])
1509 Последний из мехикан / The Last of the Meheecans (2x2, Eng, [Sub: LazyMax, Eng])
1510 Шпрот в рот / Bass to Mouth (2x2, Eng, [Sub: LazyMax, Eng])
1511 Братвейский Братобой / Broadway Bro Down (2x2, Eng, [Sub: LazyMax, Eng])
1512 1% (2x2, Eng, [Sub: LazyMax, Eng])
1513 День Благодарения на телеканале "История" / A History Channel Thanksgiving (2x2, Eng, [Sub: LazyMax, Eng])
1514 Самый бедный в школе / The Poor Kid (2x2, Eng, [Sub: LazyMax, Eng])
Бонус 1 - Удалённые сцены / Deleted Scenes (Eng, [Sub: Chaka])
Бонус 2 - За кулисами эпизода "Человеческая МногоПЕДка" / Behind the Scenes of "HUMANCENTiPAD" (Eng, [Sub: Eng])
документальный фильм, эфир - 9 октября 2011 г., продолжительность 00:42:05, 413 Мб.
Бонус 3 - За кулисами эпизода "Ганьван Суши" / Behind the Scenes of "City Sushi" (Eng, [Sub: Rus, Eng])
Бонус 4 - За кулисами эпизода "Стареешь / Behind the Scenes of "You're Getting Old" (Eng, [Sub: Rus, Eng])
документальные ролики, продолжительность 00:03:29 и 00:01:54, 39 и 17 Мб.
Внимание! Бонус 2 не переведён на русский язык, но снабжён английскими субтитрами.
Качество: Bd Rip
Формат: MKV
Видео кодек: AVC (x264)
Аудио кодек: AC3
Видео: 1280*720, 23.976 кадров/сек, ~1200 кб/сек (14-й сезон) и 1372-1572 кб/сек (15-й сезон)
Аудио 1: 48 kHz, Mono, 160 кб/сек (14-й сезон) и 192 кб/сек (15-й сезон) [русский]
Аудио 2: 48 kHz, Stereo, 160 кб/сек (только 14-й сезон) [украинский]
Аудио 3: 48 kHz, Stereo, 192 кб/сек [английский]
Аудио 4: 48 kHz, 5.1, 448 кб/сек [английский, отдельными файлами]

Информация Media Info для 1407 серии

General
Unique ID : 181460277072555638081066123588236104979 (0x8883FA66EE06B23BAA0AA012F07A5513)
Complete name : South_Park_S14E07_Crippled_Summer_2x2_Ukr_Eng_Sub_BdRip_720p.mkv
Format : Matroska
Format version : Version 2
File size : 287 MiB
Duration : 22mn 17s
Overall bit rate : 1 801 Kbps
Encoded date : UTC 2011-05-07 10:18:35
Writing application : mkvmerge v4.7.0 ('Just Like You Imagined') сборка от Apr 21 2011 01:13:14
Writing library : libebml v1.2.0 + libmatroska v1.1.0
Video
ID : 1
Format : AVC
Format/Info : Advanced Video Codec
Format profile : High@L4.0
Format settings, CABAC : Yes
Format settings, ReFrames : 9 frames
Codec ID : V_MPEG4/ISO/AVC
Duration : 22mn 17s
Bit rate : 1 254 Kbps
Width : 1 280 pixels
Height : 720 pixels
Display aspect ratio : 16:9
Frame rate : 23.976 fps
Color space : YUV
Chroma subsampling : 4:2:0
Bit depth : 8 bits
Scan type : Progressive
Bits/(Pixel*Frame) : 0.057
Stream size : 200 MiB (70%)
Writing library : x264 core 115 r1947 b5a8ad7
Encoding settings : cabac=1 / ref=9 / deblock=0:0:0 / analyse=0x3:0x133 / me=tesa / subme=9 / psy=1 / psy_rd=0.60:0.00 / mixed_ref=1 / me_range=64 / chroma_me=1 / trellis=2 / 8x8dct=1 / cqm=0 / deadzone=0,0 / fast_pskip=0 / chroma_qp_offset=-2 / threads=12 / sliced_threads=0 / nr=0 / decimate=0 / interlaced=0 / bluray_compat=0 / constrained_intra=0 / bframes=16 / b_pyramid=2 / b_adapt=2 / b_bias=0 / direct=3 / weightb=1 / open_gop=0 / weightp=2 / keyint=240 / keyint_min=23 / scenecut=40 / intra_refresh=0 / rc=cqp / mbtree=0 / qp=18 / ip_ratio=1.40 / pb_ratio=1.30 / aq=0
Default : Yes
Forced : No
Matrix coefficients : BT.709-5, BT.1361, IEC 61966-2-4 709, SMPTE RP177
Audio #1
ID : 2
Format : AC-3
Format/Info : Audio Coding 3
Mode extension : CM (complete main)
Codec ID : A_AC3
Duration : 22mn 17s
Bit rate mode : Constant
Bit rate : 160 Kbps
Channel(s) : 2 channels
Channel positions : Front: L R
Sampling rate : 48.0 KHz
Bit depth : 16 bits
Compression mode : Lossy
Stream size : 25.5 MiB (9%)
Title : 2x2
Language : Russian
Default : Yes
Forced : No
Audio #2
ID : 3
Format : AC-3
Format/Info : Audio Coding 3
Mode extension : CM (complete main)
Codec ID : A_AC3
Duration : 22mn 17s
Bit rate mode : Constant
Bit rate : 160 Kbps
Channel(s) : 2 channels
Channel positions : Front: L R
Sampling rate : 48.0 KHz
Bit depth : 16 bits
Compression mode : Lossy
Stream size : 25.5 MiB (9%)
Title : KER Production & FiliZa Studio
Language : Ukrainian
Default : No
Forced : No
Audio #3
ID : 4
Format : AC-3
Format/Info : Audio Coding 3
Mode extension : CM (complete main)
Codec ID : A_AC3
Duration : 22mn 17s
Bit rate mode : Constant
Bit rate : 192 Kbps
Channel(s) : 2 channels
Channel positions : Front: L R
Sampling rate : 48.0 KHz
Bit depth : 16 bits
Compression mode : Lossy
Stream size : 30.6 MiB (11%)
Language : English
Default : No
Forced : No
Text #1
ID : 5
Format : UTF-8
Codec ID : S_TEXT/UTF8
Codec ID/Info : UTF-8 Plain Text
Title : Verdy & Co.
Language : Russian
Default : Yes
Forced : No
Text #2
ID : 6
Format : UTF-8
Codec ID : S_TEXT/UTF8
Codec ID/Info : UTF-8 Plain Text
Language : English
Default : No
Forced : No

Информация Media Info для 1502 серии

General
Unique ID : 181542737971196363720553525146137406125 (0x8893DC09CBD001398F4C36DAFFE42AAD)
Complete name : South_Park_S15E02_Funnybot_2x2_Eng_Sub_BdRip_720p.mkv
Format : Matroska
Format version : Version 2
File size : 300 MiB
Duration : 22mn 26s
Overall bit rate : 1 872 Kbps
Encoded date : UTC 2012-04-11 10:36:26
Writing application : mkvmerge v5.5.0 ('Healer') built on Apr 6 2012 21:43:24
Writing library : libebml v1.2.3 + libmatroska v1.3.0
Video
ID : 1
Format : AVC
Format/Info : Advanced Video Codec
Format profile : High@L4.0
Format settings, CABAC : Yes
Format settings, ReFrames : 9 frames
Codec ID : V_MPEG4/ISO/AVC
Duration : 22mn 26s
Bit rate : 1 450 Kbps
Width : 1 280 pixels
Height : 720 pixels
Display aspect ratio : 16:9
Frame rate : 23.976 fps
Color space : YUV
Chroma subsampling : 4:2:0
Bit depth : 8 bits
Scan type : Progressive
Bits/(Pixel*Frame) : 0.066
Stream size : 233 MiB (77%)
Writing library : x264 core 122 r2184 5c85e0a
Encoding settings : cabac=1 / ref=9 / deblock=1:0:0 / analyse=0x3:0x133 / me=tesa / subme=11 / psy=1 / psy_rd=0.60:0.00 / mixed_ref=1 / me_range=64 / chroma_me=1 / trellis=2 / 8x8dct=1 / cqm=2 / deadzone=21,11 / fast_pskip=0 / chroma_qp_offset=-2 / threads=12 / sliced_threads=0 / nr=0 / decimate=1 / interlaced=0 / bluray_compat=0 / constrained_intra=0 / bframes=16 / b_pyramid=2 / b_adapt=2 / b_bias=0 / direct=3 / weightb=1 / open_gop=0 / weightp=2 / keyint=240 / keyint_min=23 / scenecut=40 / intra_refresh=0 / rc_lookahead=60 / rc=crf / mbtree=1 / crf=16.0 / qcomp=0.60 / qpmin=0 / qpmax=69 / qpstep=4 / ip_ratio=1.40 / aq=1:1.00
Default : Yes
Forced : No
Matrix coefficients : BT.709-5, BT.1361, IEC 61966-2-4 709, SMPTE RP177
Audio #1
ID : 2
Format : AC-3
Format/Info : Audio Coding 3
Mode extension : CM (complete main)
Codec ID : A_AC3
Duration : 22mn 26s
Bit rate mode : Constant
Bit rate : 192 Kbps
Channel(s) : 2 channels
Channel positions : Front: L R
Sampling rate : 48.0 KHz
Bit depth : 16 bits
Compression mode : Lossy
Stream size : 30.8 MiB (10%)
Title : 2x2
Language : Russian
Default : Yes
Forced : No
Audio #2
ID : 3
Format : AC-3
Format/Info : Audio Coding 3
Mode extension : CM (complete main)
Codec ID : A_AC3
Duration : 22mn 26s
Bit rate mode : Constant
Bit rate : 192 Kbps
Channel(s) : 2 channels
Channel positions : Front: L R
Sampling rate : 48.0 KHz
Bit depth : 16 bits
Compression mode : Lossy
Stream size : 30.8 MiB (10%)
Language : English
Default : No
Forced : No
Text #1
ID : 4
Format : UTF-8
Codec ID : S_TEXT/UTF8
Codec ID/Info : UTF-8 Plain Text
Title : LazyMax
Language : Russian
Default : No
Forced : No
Text #2
ID : 5
Format : UTF-8
Codec ID : S_TEXT/UTF8
Codec ID/Info : UTF-8 Plain Text
Language : English
Default : No
Forced : No
Внимание! Во всех файлах в этой раздаче несколько звуковых дорожек и субтитры. Для того, чтобы не слушать их одновременно, а переключать аудио и субтитры, используйте нормальный видеопроигрыватель. Условно бесплатный Windows Media Player от Micro$oft к нормальным не относится! Рекомендую VLC или Media Player Classic Home Cinema, в которые встроены все декодеры, необходимые для комфортного просмотра большинства видеофайлов, и поэтому засорять компьютер всевозможными кодек-паками уже не нужно.
...
[www.cybertorrent.ru].t1424.torrent 
Торрент: Зарегистрирован [ 2018-02-16 03:41 ] · C5B538CF401B3A9CC4F022C30ACF9DA7447510D5

Скачать .torrent

Скачать

35 KB

Статус: проверено
Скачан: 0 раз
Размер: 10,48 GB
Профиль [ЛС]
Показать сообщения:    

Текущее время: 20-Авг 04:43

Часовой пояс: UTC ± 0



Вы не можете начинать темы
Вы не можете отвечать на сообщения
Вы не можете редактировать свои сообщения
Вы не можете удалять свои сообщения
Вы не можете голосовать в опросах
Вы не можете прикреплять файлы к сообщениям
Вы можете скачивать файлы
Torrents24.ru открытый BitTorrent Torrents24.pl открытый BitTorrent CyberTorrent.ru открытый BitTorrent BtList.ru рейтинг BitTorrent трекеров Яндекс.Метрика