BitTorrent клиенты



"Тигры" на льду (Валентин Козачков, Альберт Осипов) [1971, Детский, комедия, спортивный, DVDRip]

Ответить на тему
 
Автор Сообщение

Angel ®

Пол: Не указан

Стаж: 1 год

Сообщений: 1346

Создавать темы 05-Фев-2018 18:35

[Цитировать]

"Тигры" на льду Год выпуска: 1971.
Страна: СССР .
Киностудия: Одесская киностудия.
Жанр: Детский, комедия, спортивный.
Продолжительность: 01:17:07.
Режиссеры: Валентин Козачков, Альберт Осипов.
Авторы сценария: Виктор Мережко, Николай Горбунов.
Оператор: Альберт Осипов.
Композиторы: Марк Лившиц, Александра Пахмутова.
Художник: Юрий Богатыренко.
В ролях:
Юля Корнева, Витя Снорков, Дима Сосновский, Саша Кривенко, Игорь Воробьев (II), Павел Ананьев, Петя Черкашин, Леван Шамилов, Наташа Белоус, Андрей Свидерский, Георгий Светлани, Наталья Фатеева, Юрий Дедович, Л. Бегун, Владимир Грамматиков, Дима Баранов, Саша Голиков, Миша Миронов, Стасик Светлов, Виталий Чижиков.
Описание:
Сестра и брат - близнецы учатся в одном классе. Девочка Зина занимается в драматическом кружке и секции фигурного катания, а её брат Игнат, убедившись в собственной физической слабости, начинает играть в дворовой хоккейной команде «Тигры». Первые синяки и даже серьезные ушибы не останавливают упорного мальчика — и вскоре он становится смелым и сильным - одним из лучших игроков команды, впервые принявшей участие в соревнованиях на приз «Золотая шайба». Сюжет построен на том, что Зина во время соревнований по хоккею, выручая, заменяет своего брата и помогает команде выиграть.
Доп. информация:

Рип apb1.
DVD здесь
DVDRip (размер 1.35 ГБ) здесь
TVRip (размер 1.37 ГБ) здесь
Качество: DVDRip
Формат: AVI
Видео кодек: DivX
Аудио кодек: MP3
Видео: 704x432 (AR: 1.63), 25.000 fps, DivX 5 6.8.4, 1300 Kbps, 0.171 bit/pixel
Аудио: 48.0 KHz, MPEG-1 Audio layer 3, 1 channel, 128 Kbps CBR

MediaInfo

General
Complete name : E:\Tigry.na.ldu.1971.DivX.DVDRip.by.apb1.avi
Format : AVI
Format/Info : Audio Video Interleave
File size : 795 MiB
Duration : 1h 17mn
Overall bit rate : 1 441 Kbps
Writing library : VirtualDub build 32593/release
Video
ID : 0
Format : MPEG-4 Visual
Format settings, BVOP : 1
Format settings, QPel : No
Format settings, GMC : No warppoints
Format settings, Matrix : Default (H.263)
Muxing mode : Packed bitstream
Codec ID : DX50
Codec ID/Hint : DivX 5
Duration : 1h 17mn
Bit rate : 1 300 Kbps
Width : 704 pixels
Height : 432 pixels
Display aspect ratio : 16:10
Frame rate : 25.000 fps
Color space : YUV
Chroma subsampling : 4:2:0
Bit depth : 8 bits
Scan type : Progressive
Compression mode : Lossy
Bits/(Pixel*Frame) : 0.171
Stream size : 717 MiB (90%)
Writing library : DivX 6.8.5 (UTC 2009-08-20)
Audio
ID : 1
Format : MPEG Audio
Format version : Version 1
Format profile : Layer 3
Codec ID : 55
Codec ID/Hint : MP3
Duration : 1h 17mn
Bit rate mode : Constant
Bit rate : 128 Kbps
Channel count : 1 channel
Sampling rate : 48.0 KHz
Compression mode : Lossy
Stream size : 70.6 MiB (9%)
Alignment : Aligned on interleaves
Interleave, duration : 24 ms (0.60 video frame)
Interleave, preload duration : 509 ms
Writing library : LAME3.98
Encoding settings : -m m -V 4 -q 3 -lowpass 20.5 -b 128

Скриншоты


[Профиль] [ЛС]
Показать сообщения:    
Ответить на тему

Текущее время: 23-Фев 00:00

Часовой пояс: UTC + 3



Вы не можете начинать темы
Вы не можете отвечать на сообщения
Вы не можете редактировать свои сообщения
Вы не можете удалять свои сообщения
Вы не можете голосовать в опросах
Вы не можете прикреплять файлы к сообщениям
Вы можете скачивать файлы