Статистика раздачи
Размер:  3,63 GB   |    Зарегистрирован:  5 месяцев 27 дней   |    Скачан:  0 раз

Полного источника не было: Никогда

Личеров:  1  [  0 KB/s  ]  
 
   
 
 

Red ®

Пол:
Не указан
Стаж:
5 месяцев 27 дней
Сообщений:
87

Губка Боб Квадратные Штаны / SpongeBob SquarePants
Страна: США
Жанр: комедия, семейный, мультсериал
Сезон : 7
Серии : 01-10,11b,12,14а,16,17.
Продолжительность: ~00:11:00
Год выпуска: 2009-2010
Перевод: Профессиональный (дублированный)
Русские субтитры: нет
Режиссёр: Стивен Хилленбург / Stephen Hillenburg
Описание: «Губка Боб Квадратные Штаны» (англ. «SpongeBob SquarePants») — американский мультсериал производства телеканала «Nickelodeon», выпущенный в эфир летом 1999 года и ставший одной из самых популярных анимационных программ телевидения, а также фактическим «лицом» канала «Nickelodeon». За время существования Губка Боб приобрел репутацию сериала с добрым, но подчас глупым юмором, неожиданным сюжетом и оригинальными сценами. Это второй по продолжительности показа мультипликационный сериал телеканала Nickelodeon после «Ох уж эти детки» (англ. «Rugrats»)
Действия мультфильма разворачиваются на дне Тихого океана в небольшом вымышленном городке под названием Бикини-Боттом, главными действующими лицами являются антропоморфные представители морской фауны: губка, морская звезда, кальмар, краб, планктон и, как бы странно это не звучало, белка. Подводная тематика была продиктована создателем сериала, Стивеном Хилленбургом, который, прежде чем стать мультипликатором, долгое время проработал в профессии морского биолога.

Список серий:

s7e01a - Tentacle-Vision (Тентакл-видение) [rus,eng]
s7e01b - I Love Dancing (Я люблю танцевать) [rus,eng]
s7e02a - Growth Spout (Болезнь роста) [rus,eng]
s7e02b - Stuck In the Wring (Вечный клей) [rus,eng]
s7e03a - Someone's in the Kitchen with Sandy (Кто-то на кухне вместе с Сенди) [rus.eng]
s7e03b - The Inside Job (Шпионаж) [rus.eng]
s7e04a - Greasy Buffoons (Жирные вкуснятинки) [rus.eng]
s7e04b - Model Sponge (Губка - звезда телевидения) [rus.eng]
s7e05a - Keep Bikini Bottom Beautiful (Наведём чистоту в Бикини-Боттом) [rus.eng]
s7e05b - A Pal for Garyl (Друг для Гери) [rus.eng]
s7e06a - Yours, Mine and Mine (Твоё, моё и опять моё) [rus.eng]
s7e06b - Kracked Krabs (Жадный Крабс) [rus.eng]
s7e07a - The Curse of Bikini Bottom (Проклятье над Бикини-Боттом) [rus,eng]
s7e07b - Squidward in Clarinetland (Сквидвард в стране кларнетов) [rus,eng]
s7e08 - SpongeBob's Last Stand (Последняя линия обороны Губки Боба) [rus,eng]
s7e09a - Back to the Past (Назад в прошлое) [rus,eng]
s7e09b - The Bad Guy Club for Villains (Клуб плохих парней-злодеев) [rus,eng]
s7e10a - A Day Without Tears (День без слёз) [rus,eng]
s7e10b - Summer Job (Летняя работа) [rus,eng]
s7e11b - Gary in Love (Гери влюбился) [rus,eng]
s7e12a - The Play's the Thing (Пьеса это находка) [rus,eng]
s7e12b - Rodeo Daze (Восхитительное родео) [rus,eng]
s7e14a - The Monster Who Came to Bikini Bottom (Монстр который пришёл в Бикини-Боттом) [rus,eng]
s7e16a - Trenchbillies (Подводная деревенщина) [rus,eng]
s7e16b - Sponge-Cano! (Несчастное извержение) [rus,eng]
s7e17 - The Great Patty Caper (Великое ограбление в поезде) [rus,eng]
Сэмпл
Все раздачи мультсериала
!!!Русская звуковая дорожка бралась из web-трансляции и изначально имела низкое качество. В раздаче чётко указанно что звук 22Khz, а для не определившихся есть сэмпл!!!!
Качество: DVDRip
Формат: AVI
Видео: XVID, 640x480, 23.976 (fps), 1 387 (kbps)
Аудио 1: [Rus] MP3, 22050 Hz, 2 (ch), 128 (kbps)
Аудио 2: [Eng] MP3, 44100 Hz, 2 (ch), 128 (kbps)
Субтитры: отсутствуют

Подробные технические данные

General
Complete name : .../s7e03a - Someone's in the Kitchen with Sandy [rus.eng].avi
Format : AVI
Format/Info : Audio Video Interleave
File size : 130 MiB
Duration : 10mn 58s
Overall bit rate : 1 657 Kbps
Writing application : VirtualDubModRus 1.5.10.2 (build 2542/release)
Writing library : VirtualDubMod build 2542/release
Video
ID : 0
Format : MPEG-4 Visual
Format profile : Simple@L1
Format settings, BVOP : No
Format settings, QPel : No
Format settings, GMC : No warppoints
Format settings, Matrix : Default (H.263)
Codec ID : XVID
Codec ID/Hint : XviD
Duration : 10mn 58s
Bit rate : 1 387 Kbps
Width : 640 pixels
Height : 480 pixels
Display aspect ratio : 4:3
Frame rate : 23.976 fps
Color space : YUV
Chroma subsampling : 4:2:0
Bit depth : 8 bits
Scan type : Progressive
Compression mode : Lossy
Bits/(Pixel*Frame) : 0.188
Stream size : 109 MiB (84%)
Writing library : Lavc52.0.0
Audio #1
ID : 1
Format : MPEG Audio
Format version : Version 2
Format profile : Layer 3
Codec ID : 55
Codec ID/Hint : MP3
Duration : 10mn 58s
Bit rate mode : Constant
Bit rate : 128 Kbps
Channel(s) : 2 channels
Sampling rate : 22.05 KHz
Compression mode : Lossy
Stream size : 10.0 MiB (8%)
Alignment : Split accross interleaves
Interleave, duration : 42 ms (1.00 video frame)
Interleave, preload duration : 500 ms
Writing library : LAME3.98.4ЄЄЄЄЄЄЄЄ
Audio #2
ID : 2
Format : MPEG Audio
Format version : Version 1
Format profile : Layer 3
Codec ID : 55
Codec ID/Hint : MP3
Duration : 10mn 58s
Bit rate mode : Constant
Bit rate : 128 Kbps
Channel(s) : 2 channels
Sampling rate : 44.1 KHz
Compression mode : Lossy
Stream size : 10.0 MiB (8%)
Alignment : Split accross interleaves
Interleave, duration : 42 ms (1.00 video frame)
Interleave, preload duration : 500 ms

Скриншоты

Внимание! Раздача ведется путем добавления новых серий

Внимание! Раздача ведётся путём добавления новых серий; при каждом добавлении создётся новый торрент. Чтобы начать докачку новой серии, пользователям необходимо сделать следующее:
(1) остановить скачивание,
(2) удалить старый торрент у себя из клиента (старые серии удалять не надо),
(3) скачать новый торрент и запустить его у себя в клиенте вместо старого, при этом указать клиенту путь в старую папку куда и должно происходить скачивание новых серий.
Ваш клиент при этом должен произвести хеширование (проверку) старой папки (если не производит сам - помогите ему сделать это), и будет докачивать только те серии которых у вас ещё нет. Старые серии при этом не удаляются, а продолжают раздаваться!
Eсли вы уже удалили старые серии, то предотвратить повторную закачку старых серий можно, отжав галочку в соответсвующих местах при запуске нового торрента. По возможности, желательно не удалять старые серии как можно дольше чтобы релизёр не столько продолжал раздавать старые серии, а смог сконцентрироваться на новых.

История обновления раздачи

12.02.11 s7e02a - Growth Spout; s7e02b - Stuck In the Wring
22.03.11 s7e14a - The Monster Who Came to Bikini Bottom; s7e16a - Trenchbillies
23.03.11 s7e16b - Sponge-Cano!
05.04.11 s7e08 - SpongeBob's Last Stand; s7e09a - Back to the Past; s7e09b - The Bad Guy Club for Villains
19.04.11 s7e04a - Greasy Buffoons; s7e04b - Model Sponge
20.04.11 s7e05a - Keep Bikini Bottom Beautiful; s7e05b - A Pal for Garyl
21.04.11 s7e01a - Tentacle-Vision; s7e01b - I Love Dancing
29.04.11 s7e10b - Summer Job; s7e11b - Gary in Love
30.04.11 s7e12a - The Play's the Thing; s7e12b - Rodeo Daze
20.06.11 s7e06a - Yours, Mine and Mine; s7e06b - Kracked Krabs
31.07.11 s7e17 - The Great Patty Caper
31.07.11Добавлена: s7e17 - The Great Patty Caper (Великое ограбление в поезде). Просьба перекачать торрент файл.
[www.cybertorrent.ru].t1389.torrent 
Торрент: Зарегистрирован [ 2018-02-16 03:41 ] · C987E09E3C515310171216A3A48E9372DF245F06

Скачать .torrent

Скачать

21 KB

Статус: проверено
Скачан: 0 раз
Размер: 3,63 GB
Профиль [ЛС]
Показать сообщения:    

Текущее время: 15-Авг 04:59

Часовой пояс: UTC ± 0



Вы не можете начинать темы
Вы не можете отвечать на сообщения
Вы не можете редактировать свои сообщения
Вы не можете удалять свои сообщения
Вы не можете голосовать в опросах
Вы не можете прикреплять файлы к сообщениям
Вы можете скачивать файлы
Torrents24.ru открытый BitTorrent Torrents24.pl открытый BitTorrent CyberTorrent.ru открытый BitTorrent BtList.ru рейтинг BitTorrent трекеров Яндекс.Метрика