Статистика раздачи
Размер:  5,26 GB   |    Зарегистрирован:  9 месяцев 25 дней   |    Скачан:  0 раз

Полного источника не было: Никогда

Личеров:  1  [  0 KB/s  ]  
 
   
 
 

AleXa ®

Пол:
Не указан
Стаж:
9 месяцев 26 дней
Сообщений:
51

Футурама / Futurama / 6 Сезон / BDRip / 2Х2 / Кубик в Кубе / Vo-production / LostFilm
Страна: США
Жанр: Мультфильм, комедия, фантастика
Сезон (количество): 6
Серии (количество): 1-13
Продолжительность: 00:21:00
Год выпуска: 2010
Перевод: Профессиональный (многоголосый закадровый) - 2X2
Перевод: Профессиональный (многоголосый закадровый) - Кубик в Кубе
Перевод: Профессиональный (многоголосый закадровый) - Vo-production
Перевод: Профессиональный (многоголосый закадровый) - LostFilm
Русские субтитры: есть
Режиссёр: Мэтт Гроунинг
Роли озвучивали: Билли Уэст, Кейти Сэгал, Джон ДиМаджио, Фил ЛаМарр, Лоурэн Том...
Описание: Сериал начинается с того, что разносчик пиццы из Нью-Йорка Филипп Джей Фрай случайно, как это кажется на первый взгляд, был заморожен в криогенной камере ровно в 00 часов 00 минут 00 секунд 1 января 2000 года. Он был разморожен тысячу лет спустя, 31 декабря 2999 года, и обнаружил себя в городе будущего Нью-Нью-Йорке. Знакомясь со своей будущей коллегой Турангой Лилой, Фрай пытается избежать принудительного назначения на работу курьером, кем он и был в прошлой жизни, и внедрения ему карьерного чипа — микросхемы, вшиваемой под кожу и определяющей род занятий своего носителя. Лила, в это время работающая инспектором по раздаче профессий, догоняя Фрая, чтобы вживить ему чип, в результате выслушивания речей Фрая о его прошлой никчемной жизни курьером, отказывается от работы инспектора, которая ей не по душе, и вместе они находят очень дальнего потомка Фрая (его пра-пра-пра-…-пра-внучатого племянника) Хьюберта Фарнсворта — маразматичного 160-летнего гениального ученого-склеротика, который берет их на работу в свою небольшую компанию «Межпланетный экспресс», занимающуюся межгалактическими грузоперевозками, на должность курьера. «Межпланетный экспресс» — это маленький бизнес профессора, окупающий его гениальные, но иногда весьма сомнительные исследования и изобретения.
Качество: BDRip
Формат: AVI
Видео: 720 X 400 / 23.976 fps / ~1400 kbps
Аудио: AC3 / 48.0 kHz / 2.0 ch / ~192 kbps / 2X2
Аудио 2: AC3 / 48.0 kHz / 2.0 ch / ~192 kbps / Кубик в Кубе
Аудио 3: AC3 / 48.0 kHz / 5.1 ch / ~384 kbps / Vo-production
Аудио 4: AC3 / 48.0 kHz / 2.0 ch / ~192 kbps / LostFilm
Аудио 5: AC3 / 48.0 kHz / 5.1 ch / ~384 kbps / Английская
Аудио 6: MP3 / 48.0 kHz / 2.0 ch / ~128 kbps / Комментарии, английская
Субтитры: Русские, английские
Семпл - http://d2t. СПАМ

Серии

0601 - Rebirth (Перерождение)
0602 - In-A-Gadda-Da-Leela (В Лилейском саду)
0603 - Attack of the Killer App (Атака убойной проги)
0604 - Proposition Infinity (Поправка «Бесконечность»)
0605 - The Duh-Vinci Code (Код нда Винчи)
0606 - Lethal Inspection (Смертельный осмотр)
0607 - The Late Philip J. Fry (Опаздывающий Филип Дж. Фрай)
0608 - That Darn Katz! (Чёртовы Коты!)
0609 - A Clockwork Origin (Происхождение по часовому механизму)
0610 - The Prisoner of Benda (Пленник Бендера)
0611 - Lrrreconcilable Ndndifferences (Совместимые Различия Лррра и Нднд)
0612 - The Mutants Are Revolting (Мутанты протестуют)
0613 - The Futurama Holiday Spectacular (Захватывающие праздники Футурамы)
-За синхронизацию сабов и дорожек 1 и 2 благодарим uxTuaHgp
За 6-канальную дорогу Vo-production благодарим vorec
Работа с видео D2T-

Подробные технические данные

General
Complete name : Q:\Сериалы\Футурама\Futurama_6s_BDRip\0602 - In-A-Gadda-Da-Leela.avi
Format : AVI
Format/Info : Audio Video Interleave
File size : 396 MiB
Duration : 21mn 39s
Overall bit rate : 2 560 Kbps
Writing application : VirtualDubMod 1.5.10.2 (build 2542/release)
Writing library : VirtualDubMod build 2542/release
Video
ID : 0
Format : MPEG-4 Visual
Format profile : Advanced Simple@L5
Format settings, BVOP : 4
Format settings, QPel : No
Format settings, GMC : No warppoints
Format settings, Matrix : Default (H.263)
Codec ID : XVID
Codec ID/Hint : XviD
Duration : 21mn 39s
Bit rate : 1 081 Kbps
Width : 720 pixels
Height : 400 pixels
Display aspect ratio : 16:9
Frame rate : 23.976 fps
Color space : YUV
Chroma subsampling : 4:2:0
Bit depth : 8 bits
Scan type : Progressive
Compression mode : Lossy
Bits/(Pixel*Frame) : 0.156
Stream size : 167 MiB (42%)
Writing library : XviD 1.2.1 (UTC 2008-12-04)
Audio #1
ID : 1
Format : AC-3
Format/Info : Audio Coding 3
Mode extension : CM (complete main)
Codec ID : 2000
Duration : 21mn 39s
Bit rate mode : Constant
Bit rate : 192 Kbps
Channel(s) : 2 channels
Channel positions : Front: L R
Sampling rate : 48.0 KHz
Bit depth : 16 bits
Compression mode : Lossy
Stream size : 29.7 MiB (8%)
Alignment : Split accross interleaves
Interleave, duration : 42 ms (1.00 video frame)
Interleave, preload duration : 500 ms
Audio #2
ID : 2
Format : AC-3
Format/Info : Audio Coding 3
Mode extension : CM (complete main)
Codec ID : 2000
Duration : 21mn 39s
Bit rate mode : Constant
Bit rate : 192 Kbps
Channel(s) : 2 channels
Channel positions : Front: L R
Sampling rate : 48.0 KHz
Bit depth : 16 bits
Compression mode : Lossy
Stream size : 29.7 MiB (8%)
Alignment : Split accross interleaves
Interleave, duration : 42 ms (1.00 video frame)
Interleave, preload duration : 500 ms
Audio #3
ID : 3
Format : AC-3
Format/Info : Audio Coding 3
Mode extension : CM (complete main)
Codec ID : 2000
Duration : 21mn 39s
Bit rate mode : Constant
Bit rate : 384 Kbps
Channel(s) : 6 channels
Channel positions : Front: L C R, Side: L R, LFE
Sampling rate : 48.0 KHz
Bit depth : 16 bits
Compression mode : Lossy
Stream size : 59.5 MiB (15%)
Alignment : Split accross interleaves
Interleave, duration : 42 ms (1.00 video frame)
Interleave, preload duration : 500 ms
Audio #4
ID : 4
Format : AC-3
Format/Info : Audio Coding 3
Mode extension : CM (complete main)
Codec ID : 2000
Duration : 21mn 39s
Bit rate mode : Constant
Bit rate : 192 Kbps
Channel(s) : 2 channels
Channel positions : Front: L R
Sampling rate : 48.0 KHz
Bit depth : 16 bits
Compression mode : Lossy
Stream size : 29.7 MiB (8%)
Alignment : Split accross interleaves
Interleave, duration : 42 ms (1.00 video frame)
Interleave, preload duration : 500 ms
Audio #5
ID : 5
Format : AC-3
Format/Info : Audio Coding 3
Mode extension : CM (complete main)
Codec ID : 2000
Duration : 21mn 39s
Bit rate mode : Constant
Bit rate : 384 Kbps
Channel(s) : 6 channels
Channel positions : Front: L C R, Side: L R, LFE
Sampling rate : 48.0 KHz
Bit depth : 16 bits
Compression mode : Lossy
Stream size : 59.5 MiB (15%)
Alignment : Split accross interleaves
Interleave, duration : 42 ms (1.00 video frame)
Interleave, preload duration : 500 ms
Audio #6
ID : 6
Format : MPEG Audio
Format version : Version 1
Format profile : Layer 3
Mode : Joint stereo
Mode extension : MS Stereo
Codec ID : 55
Codec ID/Hint : MP3
Duration : 21mn 39s
Bit rate mode : Variable
Bit rate : 98.9 Kbps
Nominal bit rate : 128 Kbps
Channel(s) : 2 channels
Sampling rate : 48.0 KHz
Compression mode : Lossy
Stream size : 15.3 MiB (4%)
Alignment : Aligned on interleaves
Interleave, duration : 24 ms (0.58 video frame)
Interleave, preload duration : 372 ms
Writing library : LAME3.98r
Encoding settings : -m j -V 4 -q 2 -lowpass 17 --abr 128

Скриншоты

Релиз

"Криволапый ювелир"

Внимание! Раздача ведётся путём добавления новых серий

Внимание! Раздача ведётся путём добавления новых серий; при каждом добавлении создётся новый торрент. Чтобы начать докачку новой серии, пользователям необходимо сделать следующее:
(1) остановить скачивание,
(2) удалить старый торрент у себя из клиента (старые серии удалять не надо),
(3) скачать новый торрент и запустить его у себя в клиенте вместо старого, при этом указать клиенту путь в старую папку куда и должно происходить скачивание новых серий.
Ваш клиент при этом должен произвести хеширование (проверку) старой папки (если не производит сам - помогите ему сделать это), и будет докачивать только те серии которых у вас ещё нет. Старые серии при этом не удаляются, а продолжают раздаваться!
Eсли вы уже удалили старые серии, то предотвратить повторную закачку старых серий можно, отжав галочку в соответсвующих местах при запуске нового торрента. По возможности, желательно не удалять старые серии как можно дольше чтобы релизёр не столько продолжал раздавать старые серии, а смог сконцентрироваться на новых.
[www.cybertorrent.ru].t1379.torrent 
Торрент: Зарегистрирован [ 2018-02-16 03:41 ] · 0D7E62D53275D76138184E4DBB8E253282889EE3

Скачать .torrent

Скачать

29 KB

Статус: проверено
Скачан: 0 раз
Размер: 5,26 GB
Профиль [ЛС]
Показать сообщения:    

Текущее время: 13-Дек 20:36

Часовой пояс: UTC ± 0



Вы не можете начинать темы
Вы не можете отвечать на сообщения
Вы не можете редактировать свои сообщения
Вы не можете удалять свои сообщения
Вы не можете голосовать в опросах
Вы не можете прикреплять файлы к сообщениям
Вы можете скачивать файлы
Torrents24.ru открытый BitTorrent Torrents24.pl открытый BitTorrent CyberTorrent.ru открытый BitTorrent BtList.ru рейтинг BitTorrent трекеров Яндекс.Метрика