BitTorrent клиенты



Полуночный экспресс / The Midnight Meat Train (Рюхэй Китамура / Ryuhei Kitamura) [2008, США, ужасы, триллер, драма, криминал, детектив, BDRip 720p] [Director's cut]

Ответить на тему
 
Автор Сообщение

Вектор ®

Пол: Не указан

Стаж: 1 год

Сообщений: 4452

Создавать темы 05-Фев-2018 18:10

[Цитировать]

Полуночный экспресс / The Midnight Meat Train
Год выпуска: 2008
Страна: США
Жанр: ужасы, триллер, криминал, детектив
Продолжительность: 1:42:57
Перевод: Профессиональный (полное дублирование)
Русские субтитры: есть
Режиссер: Рюхэй Китамура
В ролях: Брэдли Купер, Лесли Бибб, Брук Шилдс, Винни Джонс, Роджер Барт, Тони Каррен, Барбара Ив Харрис, Питер Джекобсон, Стефани Мейс, Тед эйми.
Описание: Молодой фотограф криминальной хроники Леон Кауфман получает выгодное предложение показать публике свои работы от одной Нью-Йоркской галереи. В своих фотографиях он должен отразить «все экстремальное и темное», что есть в городе. В поисках сюжета поздно ночью он случайно становится свидетелем ужасного убийства молодой девушки в подземке. Понимая, что его фотографии могут помочь полиции в поимке убийцы, Леон все больше вовлекается в это дело и в скором времени узнает, что его собственная девушка Мая тоже похищена. Теперь он должен в кратчайшие сроки разгадать тайну жестоких убийств в подземке и успеть спасти свою девушку, пока не поздно…
Рип от DON
Доп. информация: Director's cut: есть места без перевода
За Русские субтитры спасибо MaLLIeHbKa
Качество: BDRip
Формат: MKV
Видео кодек: H.264
Аудио кодек: DTS, AC3
Видео: x.264, 1280x544 (OAR), 23.976 fps, ~7535 kbps
Аудио #1: Русский AC3 5.1, 48 KHz, 448 kbps
Аудио #2: Английский DTS 5.1, 48 KHz, 1536 kbps
Аудио #3: Английский Vorbis 2.0, 48 KHz, 80 kbps
Субтитры #1: Русские (Только на не переведённые моменты)
Субтитры #2: Русские (полные)
Субтитры #3: Английские

Скриншоты


MediaInfo

Общее
Уникальный идентификатор : 177408516641698544586955374658809015489 (0x8577A330829C34CF88431E79DEA0ACC1)
Полное имя : D:\The.Midnight.Meat.Train.2008.720p.BluRay.DTS.x264.mkv
Формат : Matroska
Версия формата : Version 1
Размер файла : 6,88 Гбайт
Продолжительность : 1 ч. 42 м.
Режим общего битрейта : Переменный
Общий поток : 9567 Кбит/сек
Дата кодирования : UTC 2009-03-03 05:03:25
Программа кодирования : mkvmerge v2.5.1 ('He Wasn't There') built on Feb 25 2009 16:04:20
Библиотека кодирования : libebml v0.7.7 + libmatroska v0.8.1
Attachments : CronosPro-Bold.ttf / CronosPro-Semibold.ttf / CronosPro-SemiboldIt.ttf
Видео
Идентификатор : 1
Формат : AVC
Формат/Информация : Advanced Video Codec
Профиль формата : High@L4.1
Параметр CABAC формата : Да
Параметр ReFrames формата : 8 кадров
Идентификатор кодека : V_MPEG4/ISO/AVC
Продолжительность : 1 ч. 42 м.
Битрейт : 7535 Кбит/сек
Ширина : 1280 пикселей
Высота : 544 пикселя
Соотношение сторон : 2,35:1
Режим частоты кадров : Постоянный
Частота кадров : 23,976 (24000/1001) кадра/сек
Цветовое пространство : YUV
Субдискретизация насыщенности : 4:2:0
Битовая глубина : 8 бит
Тип развёртки : Прогрессивная
Бит/(Пиксели*Кадры) : 0.451
Размер потока : 5,28 Гбайт (77%)
Заголовок : The Midnight Meat Train 2008
Библиотека кодирования : x264 core 66 r1114M a933a3e
Настройки программы : cabac=1 / ref=8 / deblock=1:-3:-3 / analyse=0x3:0x113 / me=umh / subme=9 / psy_rd=1.0:0.0 / mixed_ref=1 / me_range=28 / chroma_me=1 / trellis=2 / 8x8dct=1 / cqm=0 / deadzone=21,11 / chroma_qp_offset=-2 / threads=6 / nr=0 / decimate=0 / mbaff=0 / bframes=5 / b_pyramid=1 / b_adapt=2 / b_bias=0 / direct=3 / wpredb=1 / keyint=250 / keyint_min=25 / scenecut=40(pre) / rc=2pass / bitrate=7535 / ratetol=1.0 / qcomp=0.60 / qpmin=10 / qpmax=51 / qpstep=4 / cplxblur=20.0 / qblur=0.5 / ip_ratio=1.40 / pb_ratio=1.30 / aq=1:0.70
Язык : English
Default : Да
Forced : Нет
Аудио #1
Идентификатор : 2
Формат : AC-3
Формат/Информация : Audio Coding 3
Параметр Endianness формата : Big
Идентификатор кодека : A_AC3
Продолжительность : 1 ч. 42 м.
Вид битрейта : Постоянный
Битрейт : 448 Кбит/сек
Каналы : 6 каналов
Расположение каналов : Front: L C R, Side: L R, LFE
Частота : 48,0 КГц
Частота кадров : 31,250 кадров/сек (1536 spf)
Битовая глубина : 16 бит
Метод сжатия : С потерями
Размер потока : 330 Мбайт (5%)
Заголовок : Дубляж AC3 6ch 448kbps
Язык : Russian
ServiceKind/String : Complete Main
Default : Да
Forced : Нет
Аудио #2
Идентификатор : 3
Формат : DTS
Формат/Информация : Digital Theater Systems
Режим : 16
Параметр Endianness формата : Big
Идентификатор кодека : A_DTS
Продолжительность : 1 ч. 42 м.
Вид битрейта : Постоянный
Битрейт : 1509 Кбит/сек
Каналы : 6 каналов
Расположение каналов : Front: L C R, Side: L R, LFE
Частота : 48,0 КГц
Частота кадров : 93,750 кадра/сек (512 spf)
Битовая глубина : 24 бит
Метод сжатия : С потерями
Размер потока : 1,09 Гбайт (16%)
Заголовок : DTS Core 5.1 @ 1.5 Mbps
Язык : English
Default : Нет
Forced : Нет
Аудио #3
Идентификатор : 4
Формат : Vorbis
Параметр Floor формата : 1
Идентификатор кодека : A_VORBIS
Продолжительность : 1 ч. 42 м.
Вид битрейта : Переменный
Битрейт : 80,0 Кбит/сек
Каналы : 2 канала
Частота : 48,0 КГц
Метод сжатия : С потерями
Размер потока : 58,9 Мбайт (1%)
Заголовок : Author & Director Commentary
Программа кодирования : Made with BeSweet v1.5b31
Библиотека кодирования : libVorbis 1.2 (UTC 2007-06-22)
Язык : English
Default : Нет
Forced : Нет
Encoded_Application/Url : http://DSPguru.doom9.org
Текст #1
Идентификатор : 5
Формат : UTF-8
Идентификатор кодека : S_TEXT/UTF8
Идентификатор кодека/Информация : UTF-8 Plain Text
Заголовок : Only
Язык : Russian
Default : Да
Forced : Нет
Текст #2
Идентификатор : 6
Формат : UTF-8
Идентификатор кодека : S_TEXT/UTF8
Идентификатор кодека/Информация : UTF-8 Plain Text
Язык : Russian
Default : Нет
Forced : Нет
Текст #3
Идентификатор : 7
Формат : ASS
Идентификатор кодека : S_TEXT/ASS
Идентификатор кодека/Информация : Advanced Sub Station Alpha
Метод сжатия : Без потерь
Язык : English
Default : Нет
Forced : Нет
[Профиль] [ЛС]
Показать сообщения:    
Ответить на тему

Текущее время: 23-Фев 00:33

Часовой пояс: UTC + 3



Вы не можете начинать темы
Вы не можете отвечать на сообщения
Вы не можете редактировать свои сообщения
Вы не можете удалять свои сообщения
Вы не можете голосовать в опросах
Вы не можете прикреплять файлы к сообщениям
Вы можете скачивать файлы