Статистика раздачи
Размер:  2,68 GB   |    Зарегистрирован:  5 месяцев 27 дней   |    Скачан:  0 раз

Полного источника не было: Никогда

 
   
 
 

0H0 ®

Пол:
Не указан
Стаж:
5 месяцев 27 дней
Сообщений:
156

Трансформеры: Прайм / Transformers Prime- -Год выпуска: 2010
Страна: США, Япония
Жанр: Меха, Приключения Мультипликация
Продолжительность: ~ 00:23:00
Перевод: Профессиональный (многоголосый, закадровый) VO-production + Glanz
Режиссер: Дэвид Хартман-Роли озвучивали:
Питер Каллен, Фрэнк Уэлкер, Стивен Блум, Джеффри Комбс, Сумали Монтано, Кевин Майкл Ричардсон, Таня Гунади, Джошуа Китон, Энди Пессоа, Эрни Хадсон и др.-Описание:
Трансформеры: Прайм являются очередной франшизой сериала Трансформеры, который вышел осенью 2010 года.
Новые Трансформеры идут по сюжету Transformers: War for Cybertron, основанный на видеоигре, в которой события происходят на родной планете Трансформеров.
Новая история войны Десептиконов и Автоботов происходит на Земле.
В то время, пока идет война между роботами, Мегатрон пытается найти и управлять Темным Энергоном, чтобы с его помощью уничтожить Автоботов.
-Качество: WEB-DL 720p
Формат: MKV
Видео кодек: H.264
Аудио кодек: AC3
Видео: 1280x720 (1.78:1) 23.976 fps Intel ITU H.264 ~3200 kbps avg 0.142 bit/pixel
Аудио: 48 kHz, AC3 Dolby Digital, 2/0 (L,R) ch, ~256.00 kbps avg-Релиз: --Все раздачи сериала | Сэмпл | IMDb | КиноПоиск--

Список серий

  • Darkness Rising: Part I
  • Darkness Rising: Part II
  • Darkness Rising: Part III
  • Darkness Rising: Part IV
  • Darkness Rising: Part V
  • Скриншоты

    - Как закачать отдельный файл из торрента или докачать ранее пропущенные файлы торрента! -

    MI

    Код:General
    Complete name : C:\Transformers_Prime_0101_WEB-DL_VO-production.mkv
    Format : Matroska
    File size : 548 MiB
    Duration : 22mn 8s
    Overall bit rate : 3 460 Kbps
    Encoded date : UTC 2011-02-20 11:23:23
    Writing application : mkvmerge v2.4.0 ('Fumbling Towards Ecstasy') built on Oct 11 2008 20:13:15
    Writing library : libebml v0.7.7 + libmatroska v0.8.1
    Video
    ID : 1
    Format : AVC
    Format/Info : Advanced Video Codec
    Format profile : High@L3.1
    Format settings, CABAC : Yes
    Format settings, ReFrames : 3 frames
    Muxing mode : Container profile=Unknown@3.1
    Codec ID : V_MPEG4/ISO/AVC
    Duration : 22mn 7s
    Bit rate : 3 135 Kbps
    Nominal bit rate : 3 200 Kbps
    Width : 1 280 pixels
    Height : 720 pixels
    Display aspect ratio : 16:9
    Frame rate : 23.976 fps
    Resolution : 8 bits
    Colorimetry : 4:2:0
    Scan type : Progressive
    Bits/(Pixel*Frame) : 0.142
    Stream size : 496 MiB (91%)
    Writing library : x264 core 65 r999kMod cc51047
    Encoding settings : cabac=1 / ref=3 / deblock=1:0:0 / analyse=0x3:0x133 / me=umh / subme=6 / psy_rd=1.0:0.0 / mixed_ref=1 / me_range=16 / chroma_me=1 / trellis=1 / 8x8dct=1 / cqm=0 / deadzone=21,11 / chroma_qp_offset=-2 / threads=4 / thread_queue=4 / nr=0 / decimate=1 / mbaff=0 / bframes=3 / b_pyramid=1 / b_adapt=1 / b_bias=0 / direct=3 / wpredb=1 / keyint=250 / keyint_min=25 / scenecut=40(pre) / rc=2pass / bitrate=3200 / ratetol=1.0 / qcomp=0.60 / qpmin=10 / qpmax=51 / qpstep=4 / cplxblur=20.0 / qblur=0.5 / ip_ratio=1.40 / pb_ratio=1.30 / aq=1:1.00
    Audio
    ID : 2
    Format : AC-3
    Format/Info : Audio Coding 3
    Codec ID : A_AC3
    Duration : 22mn 8s
    Bit rate mode : Constant
    Bit rate : 256 Kbps
    Channel(s) : 2 channels
    Channel positions : L R
    Sampling rate : 48.0 KHz
    Stream size : 40.5 MiB (7%)

    Внимание! Раздача ведётся путём добавления новых серий!

    Внимание! Раздача ведётся путём добавления новых серий; при каждом добавлении создётся новый торрент. Чтобы начать докачку новой серии, пользователям необходимо сделать следующее:
    (1) остановить скачивание,
    (2) удалить старый торрент у себя из клиента (старые серии удалять не надо),
    (3) скачать новый торрент и запустить его у себя в клиенте вместо старого, при этом указать клиенту путь в старую папку куда и должно происходить скачивание новых серий.
    Ваш клиент при этом должен произвести хеширование (проверку) старой папки (если не производит сам - помогите ему сделать это), и будет докачивать только те серии которых у вас ещё нет. Старые серии при этом не удаляются, а продолжают раздаваться!
    Eсли вы уже удалили старые серии, то предотвратить повторную закачку старых серий можно, отжав галочку в соответсвующих местах при запуске нового торрента.
    ----
    [www.cybertorrent.ru].t1355.torrent 
    Торрент: Зарегистрирован [ 2018-02-16 03:41 ] · C073B6F4AFDFE71943E1BA5E8FF926FF7BCB6010

    Скачать .torrent

    Скачать

    14 KB

    Статус: проверено
    Скачан: 0 раз
    Размер: 2,68 GB
    Профиль [ЛС]
    Показать сообщения:    

    Текущее время: 15-Авг 08:35

    Часовой пояс: UTC ± 0



    Вы не можете начинать темы
    Вы не можете отвечать на сообщения
    Вы не можете редактировать свои сообщения
    Вы не можете удалять свои сообщения
    Вы не можете голосовать в опросах
    Вы не можете прикреплять файлы к сообщениям
    Вы можете скачивать файлы
    Torrents24.ru открытый BitTorrent Torrents24.pl открытый BitTorrent CyberTorrent.ru открытый BitTorrent BtList.ru рейтинг BitTorrent трекеров Яндекс.Метрика