Статистика раздачи
Размер:  1,01 GB   |    Зарегистрирован:  5 месяцев 27 дней   |    Скачан:  0 раз

Полного источника не было: Никогда

 
   
 
 

0H0 ®

Пол:
Не указан
Стаж:
5 месяцев 27 дней
Сообщений:
156

Трансформеры: Прайм / Transformers Prime- -Год выпуска: 2010
Страна: США, Япония
Жанр: Меха, Приключения Мультипликация
Продолжительность: ~ 00:23:00
Перевод: Профессиональный (многоголосый, закадровый) VO-production + Glanz
Режиссер: Дэвид Хартман-Роли озвучивали:
Питер Каллен, Фрэнк Уэлкер, Стивен Блум, Джеффри Комбс, Сумали Монтано, Кевин Майкл Ричардсон, Таня Гунади, Джошуа Китон, Энди Пессоа, Эрни Хадсон и др.-Описание:
Трансформеры: Прайм являются очередной франшизой сериала Трансформеры, который вышел осенью 2010 года.
Новые Трансформеры идут по сюжету Transformers: War for Cybertron, основанный на видеоигре, в которой события происходят на родной планете Трансформеров.
Новая история войны Десептиконов и Автоботов происходит на Земле.
В то время, пока идет война между роботами, Мегатрон пытается найти и управлять Темным Энергоном, чтобы с его помощью уничтожить Автоботов.
-Качество: WEB-DLRip
Формат: AVI
Видео кодек: XviD
Аудио кодек: AC3
Видео: 720x400 (1.80:1) 23.976 fps XviD MPEG-4 1100 kbps avg 0.16 bit/pixel
Аудио: 48 kHz AC3 Dolby Digital 2/0 (L,R) ch 192.00 kbps avg-Релиз: --Все раздачи сериала | Сэмпл | IMDb | КиноПоиск--

Список серий

  • Darkness Rising: Part 1
  • Darkness Rising: Part II
  • Darkness Rising: Part III
  • Darkness Rising: Part IV
  • Darkness Rising: Part V
  • - Как закачать отдельный файл из торрента или докачать ранее пропущенные файлы торрента! -

    MI

    General
    Complete name : C:\Transformers_Prime_0101_WEB-DLrip_VO-production.avi
    Format : AVI
    Format/Info : Audio Video Interleave
    File size : 206 MiB
    Duration : 22mn 8s
    Overall bit rate : 1 299 Kbps
    Writing application : VirtualDubMod 1.5.10.2 (build 2540/release)
    Writing library : VirtualDubMod build 2540/release
    Video
    ID : 0
    Format : MPEG-4 Visual
    Format profile : Advanced Simple@L5
    Format settings, BVOP : Yes
    Format settings, QPel : No
    Format settings, GMC : No warppoints
    Format settings, Matrix : Default (H.263)
    Muxing mode : Packed bitstream
    Codec ID : XVID
    Codec ID/Hint : XviD
    Duration : 22mn 8s
    Bit rate : 1 098 Kbps
    Width : 720 pixels
    Height : 400 pixels
    Display aspect ratio : 16:9
    Frame rate : 23.976 fps
    Resolution : 8 bits
    Colorimetry : 4:2:0
    Scan type : Progressive
    Bits/(Pixel*Frame) : 0.159
    Stream size : 174 MiB (84%)
    Writing library : XviD 1.2.0.dev47 (UTC 2006-11-01)
    Audio
    ID : 1
    Format : AC-3
    Format/Info : Audio Coding 3
    Codec ID : 2000
    Duration : 22mn 8s
    Bit rate mode : Constant
    Bit rate : 192 Kbps
    Channel(s) : 2 channels
    Channel positions : L R
    Sampling rate : 48.0 KHz
    Stream size : 30.4 MiB (15%)
    Alignment : Split accross interleaves
    Interleave, duration : 42 ms (1.00 video frame)
    Interleave, preload duration : 500 ms

    Внимание! Раздача ведётся путём добавления новых серий!

    Внимание! Раздача ведётся путём добавления новых серий; при каждом добавлении создётся новый торрент. Чтобы начать докачку новой серии, пользователям необходимо сделать следующее:
    (1) остановить скачивание,
    (2) удалить старый торрент у себя из клиента (старые серии удалять не надо),
    (3) скачать новый торрент и запустить его у себя в клиенте вместо старого, при этом указать клиенту путь в старую папку куда и должно происходить скачивание новых серий.
    Ваш клиент при этом должен произвести хеширование (проверку) старой папки (если не производит сам - помогите ему сделать это), и будет докачивать только те серии которых у вас ещё нет. Старые серии при этом не удаляются, а продолжают раздаваться!
    Eсли вы уже удалили старые серии, то предотвратить повторную закачку старых серий можно, отжав галочку в соответсвующих местах при запуске нового торрента.
    ----
    [www.cybertorrent.ru].t1354.torrent 
    Торрент: Зарегистрирован [ 2018-02-16 03:41 ] · 8D2B21EE7A240B9B8794D5B6AB381471BB697E2D

    Скачать .torrent

    Скачать

    11 KB

    Статус: проверено
    Скачан: 0 раз
    Размер: 1,01 GB
    Профиль [ЛС]
    Показать сообщения:    

    Текущее время: 15-Авг 04:59

    Часовой пояс: UTC ± 0



    Вы не можете начинать темы
    Вы не можете отвечать на сообщения
    Вы не можете редактировать свои сообщения
    Вы не можете удалять свои сообщения
    Вы не можете голосовать в опросах
    Вы не можете прикреплять файлы к сообщениям
    Вы можете скачивать файлы
    Torrents24.ru открытый BitTorrent Torrents24.pl открытый BitTorrent CyberTorrent.ru открытый BitTorrent BtList.ru рейтинг BitTorrent трекеров Яндекс.Метрика