Статистика раздачи
Размер:  34,14 GB   |    Зарегистрирован:  9 месяцев 25 дней   |    Скачан:  0 раз

Полного источника не было: Никогда

 
   
 
 

irkutsk ®

Пол:
Не указан
Стаж:
9 месяцев 26 дней
Сообщений:
175

South Park
Южный парк
5, 6, 7, 8-й Сезон, и эпизод 310
-Общая информация
Страна: США
Дата выхода: 1999 - 2004
Жанр: Комедия, мультфильм
Продолжительность: ~22 минут серия
Оригинальная дорожка: Есть
Перевод:
  • Русский - Многоголосый, закадровый (MTV)* Сэмпл
    * Эпизод 803 The Passion of the Jew не транслировался на MTV - в этой серии перевод Lita & Hansen (aka Pegucka) и VO-production
  • Украинский - Профессиональный (дублированный) (MTV) *
    * Внешним файлом (Спасибо selisey6)
    Субтитры:
  • Русские (в 8 сезоне)
  • Английские (в 5-8 сезоне)
    -
    Создатели
    Мэтт Стоун и Трей Паркер-Описание и рейтинги

    Южный парк — американский мультсериал, созданный Мэттом Стоуном и Треем Паркером. Выпускается кабельным телеканалом Comedy Central с 1997 г. Основу сюжета составляют сюрреалистические приключения четырёх мальчиков и их друзей, живущих в маленьком городке Сауc-Парк, штат Колорадо. Сериал высмеивает американскую культуру и текущие мировые события, а также подвергает критике множество глубоких убеждений и табу, благодаря пародии и чёрному юмору.-

    Сезон 3, Серия 10

    Список серий
  • 310 Чинпокомон (Chinpoko Mon) - 03.11.1999
    Технические параметры
    Качество: WEB-DL 720р
    Кодек: Н 264
    Формат (контейнер): MKV
    Разрешение: 1280х720
    Битрейт: ~ 2889 Кбит/сек
    Аудио 1: 48 КГц AC3 2.0 192k - MTV
    Аудио 2: 48 КГц AC3 2.0 192k - Английский
    Аудио: 48 КГц AC3 2.0 192k - РенТВ (отдельным файлом)
    Аудио: 48 КГц AC3 2.0 192k - Украинский (отдельным файлом)
    Субтитры: SRT / UTF-8 - Английские

    Media Info

    Код:General
    Complete name : /South Park/South Park, Season 3 [MTV] WEB-DL 720p/10 Chinpoko Mon (MTV) WEB-DL 720p - by jhonny2.mkv
    Format : Matroska
    File size : 530 MiB
    Duration : 22mn 10s
    Overall bit rate : 3 340 Kbps
    Movie name : South Park, Season 3, Episode 10 : Chinpoko Mon - by jhonny2
    Encoded date : UTC 2011-10-13 10:09:38
    Writing application : mkvmerge v4.9.1 ('Ich will') built on Sep 21 2011 17:48:11
    Writing library : libebml v1.2.1 + libmatroska v1.2.0
    Video
    ID : 1
    Format : AVC
    Format/Info : Advanced Video Codec
    Format profile : High@L3.1
    Format settings, CABAC : No
    Format settings, ReFrames : 2 frames
    Muxing mode : Container profile=Unknown@3.1
    Codec ID : V_MPEG4/ISO/AVC
    Duration : 22mn 10s
    Bit rate : 2 889 Kbps
    Width : 1 280 pixels
    Height : 720 pixels
    Display aspect ratio : 16:9
    Frame rate : 23.976 fps
    Color space : YUV
    Chroma subsampling : 4:2:0
    Bit depth : 8 bits
    Scan type : Progressive
    Bits/(Pixel*Frame) : 0.131
    Stream size : 458 MiB (87%)
    Color primaries : BT.709-5, BT.1361, IEC 61966-2-4, SMPTE RP177
    Transfer characteristics : BT.709-5, BT.1361
    Matrix coefficients : BT.709-5, BT.1361, IEC 61966-2-4 709, SMPTE RP177
    Audio #1
    ID : 2
    Format : AC-3
    Format/Info : Audio Coding 3
    Format profile : Dolby Digital
    Mode extension : CM (complete main)
    Codec ID : A_AC3
    Duration : 22mn 10s
    Bit rate mode : Constant
    Bit rate : 192 Kbps
    Channel(s) : 2 channels
    Channel positions : Front: L R
    Sampling rate : 48.0 KHz
    Stream size : 30.4 MiB (6%)
    Title : MTV
    Language : Russian
    Audio #2
    ID : 3
    Format : AC-3
    Format/Info : Audio Coding 3
    Format profile : Dolby Digital
    Mode extension : CM (complete main)
    Codec ID : A_AC3
    Duration : 22mn 10s
    Bit rate mode : Constant
    Bit rate : 192 Kbps
    Channel(s) : 2 channels
    Channel positions : Front: L R
    Sampling rate : 48.0 KHz
    Stream size : 30.4 MiB (6%)
    Text
    ID : 4
    Format : UTF-8
    Codec ID : S_TEXT/UTF8
    Codec ID/Info : UTF-8 Plain Text
  • Скриншоты

    Доп. информация
  • Релиз - jhonny2 (куплено в iTunes, взломано, выложено в сеть, а также работа с аудио и субтитрами для этого релиза)
  • При размещении на других ресурсах указывайте авторство
  • Звуковые дорожки с DVD от Shop Springfield)
  • Серия входит в сборник South Park: Year of the Fan

    Сезон 5

    Список серий
  • 501 Скотт Тенорман должен умереть / Scott Tenorman Must Die
  • 502 Большая общественная проблема / It Hits the Fan
  • 503 Бой калек / Cripple Fight
  • 504 Суперлучшие друзья / Super Best Friends *

  • 505 Тэренс и Филип: обратная сторона успеха / Terrance and Phillip: Behind the Blow
  • 506 Картмандия / Cartmanland
  • 507 Правильное использование презерватива / Proper Condom Use
  • 508 Полотенчик / Towelie
  • 509 У Усамы бин Ладена вонючие штаны / Osama bin Laden Has Farty Pants
  • 510 Как питаться с помощью задницы / How to Eat with Your Butt
  • 511 Сущность / The Entity
  • 512 Приходят соседи / Here Comes the Neighborhood
  • 513 Кенни умирает / Kenny Dies
  • 514 Собственный эпизод Баттерса / Butters' Very Own Episode
    Технические параметры
    Качество: WEB-DL 720р
    Кодек: Н 264
    Формат (контейнер): MKV
    Разрешение: 1280х720
    Битрейт: ~ 3000 Кбит/сек
    Аудио 1: 48 КГц AC3 2.0 192k - MTV
    Аудио 2: 48 КГц AC3 2.0 192k - Английский
    Аудио: 48 КГц AC3 2.0 192k - Украинский (отдельным файлом)
    Субтитры: SRT / UTF-8 - Английские

    Media Info

    Код:Общее
    Уникальный идентификатор : 203475125904987368312595005997234436200 (0x9913E2402E8FE185B572820F9342B868)
    Полное имя : South Park\South Park, Season 5 [MTV] WEB-DL 720p\01 Scott Tenorman Must Die (MTV) WEB-DL 720p.mkv
    Формат : Matroska
    Версия формата : Version 2
    Размер файла : 591 Мбайт
    Продолжительность : 22 м.
    Общий поток : 3740 Кбит/сек
    Название фильма : 01 Scott Tenorman Must Die - by jhonny2 & dynam1te
    Дата кодирования : UTC 2011-12-30 10:41:12
    Программа кодирования : mkvmerge v5.0.1 ('Es ist Sommer') built on Nov 6 2011 16:23:40
    Библиотека кодирования : libebml v1.2.2 + libmatroska v1.3.0
    Видео
    Идентификатор : 1
    Формат : AVC
    Формат/Информация : Advanced Video Codec
    Профиль формата : High@L3.1
    Параметр CABAC формата : Нет
    Параметр ReFrames формата : 2 кадра
    Идентификатор кодека : V_MPEG4/ISO/AVC
    Продолжительность : 22 м.
    Битрейт : 3282 Кбит/сек
    Ширина : 1280 пикс.
    Высота : 720 пикс.
    Соотношение сторон : 16:9
    Частота кадров : 23,976 кадр/сек
    Цветовое пространство : YUV
    Подвыборка цветности : 4:2:0
    Битовая глубина : 8 бит
    Тип развёртки : Прогрессивная
    Бит/(Пиксели*Кадры) : 0.149
    Размер потока : 518 Мбайт (88%)
    Язык : English
    Основные цвета : BT.709-5, BT.1361, IEC 61966-2-4, SMPTE RP177
    Характеристики трансфера : BT.709-5, BT.1361
    Коэффициенты матрицы : BT.709-5, BT.1361, IEC 61966-2-4 709, SMPTE RP177
    Аудио #1
    Идентификатор : 2
    Формат : AC-3
    Формат/Информация : Audio Coding 3
    Профиль формата : Dolby Digital
    Расширение режима : CM (complete main)
    Идентификатор кодека : A_AC3
    Продолжительность : 22 м.
    Вид битрейта : Постоянный
    Битрейт : 192 Кбит/сек
    Каналы : 2 канала
    Расположение каналов : Front: L R
    Частота : 48,0 КГц
    Битовая глубина : 16 бит
    Метод сжатия : С потерями
    Размер потока : 30,3 Мбайт (5%)
    Заголовок : MTV
    Язык : Russian
    Аудио #2
    Идентификатор : 3
    Формат : AC-3
    Формат/Информация : Audio Coding 3
    Профиль формата : Dolby Digital
    Расширение режима : CM (complete main)
    Идентификатор кодека : A_AC3
    Продолжительность : 22 м.
    Вид битрейта : Постоянный
    Битрейт : 192 Кбит/сек
    Каналы : 2 канала
    Расположение каналов : Front: L R
    Частота : 48,0 КГц
    Битовая глубина : 16 бит
    Метод сжатия : С потерями
    Размер потока : 30,3 Мбайт (5%)
    Язык : English
    Текст
    Идентификатор : 4
    Формат : UTF-8
    Идентификатор кодека : S_TEXT/UTF8
    Идентификатор кодека/Информация : UTF-8 Plain Text
    Язык : English
    Доп. информация
  • В раздаче отсутствует серия 504 Суперлучшие друзья / Super Best Friends . Серии нет в магазине iTunes.
  • dynam1te (куплено в iTunes, взломано, выложено в сеть)
  • jhonny2 работa с аудио и субтитрами этого сезона
  • Звуковые дорожки и субтитры из личного архива Bigborman
  • Английская дорожка с оригинального ДВД, стерео, ас3 192кб/с (оригиналы ААС были моно)

    Сезон 6

    Список серий
  • 601 Забастовка уродов / Freak Strike
  • 602 У Джареда есть помощники / Jared Has Aides
  • 603 Жопен / Asspen
  • 604 Анонс нового фильма с Тэренсом и Филипом / The New Terrance and Phillip Movie Trailer
  • 605 Развлечения с телятиной / Fun with Veal
  • 606 Профессор Хаос / Professor Chaos
  • 607 Это уже было в "Симпсонах" / The Simpsons Already Did It
  • 608 Пылкая католическая любовь / Red Hot Catholic Love
  • 609 Даёшь шляпу / Free Hat
  • 610 Сиськи Бебе всё испортили / Bebe's Boobs Destroy Society
  • 611 Похищение детей - это не смешно / Child Abduction Is Not Funny
  • 612 Лестница в небо / A Ladder to Heaven
  • 613 Возвращение Братства Кольца в Две Башни / The Return of the Fellowship of the Ring to the Two Towers
  • 614 Концлагерь терпимости / The Death Camp of Tolerance
  • 615 Самый большой говнюк во Вселенной / The Biggest Douche in the Universe
  • 616 Я и моё будущее я / My Future Self n' Me
  • 617 Падение красных саней / Red Sleigh Down
    Технические параметры
    Качество: WEB-DL 720р
    Кодек: Н 264
    Формат (контейнер): MKV
    Разрешение: 1280х720
    Битрейт: ~ 3000 Кбит/сек
    Аудио 1: 48 КГц AC3 2.0 192k - MTV
    Аудио 2: 48 КГц AC3 2.0 192k - Английский
    Аудио: 48 КГц AC3 2.0 192k - Украинский (отдельным файлом)
    Субтитры: SRT / UTF-8 - Английские

    Media Info

    Код:General
    Complete name : /South Park/South Park, Season 6 [MTV] WEB-DL 720p/South_Park_S06E01_Freak_Strike_MTV_Eng_Sub_WebDl_720p.mkv
    Format : Matroska
    File size : 543 MiB
    Duration : 22mn 5s
    Overall bit rate : 3 436 Kbps
    Encoded date : UTC 2011-09-15 17:47:16
    Writing application : mkvmerge v4.9.1 ('Ich will') сборка от Aug 10 2011 09:31:20
    Writing library : libebml v1.2.1 + libmatroska v1.2.0
    Video
    ID : 1
    Format : AVC
    Format/Info : Advanced Video Codec
    Format profile : High@L3.1
    Format settings, CABAC : No
    Format settings, ReFrames : 2 frames
    Muxing mode : Container profile=Unknown@3.1
    Codec ID : V_MPEG4/ISO/AVC
    Duration : 22mn 5s
    Bit rate : 2 984 Kbps
    Width : 1 280 pixels
    Height : 720 pixels
    Display aspect ratio : 16:9
    Frame rate : 23.976 fps
    Color space : YUV
    Chroma subsampling : 4:2:0
    Bit depth : 8 bits
    Scan type : Progressive
    Bits/(Pixel*Frame) : 0.135
    Stream size : 472 MiB (87%)
    Color primaries : BT.709-5, BT.1361, IEC 61966-2-4, SMPTE RP177
    Transfer characteristics : BT.709-5, BT.1361
    Matrix coefficients : BT.709-5, BT.1361, IEC 61966-2-4 709, SMPTE RP177
    Audio #1
    ID : 2
    Format : AC-3
    Format/Info : Audio Coding 3
    Mode extension : CM (complete main)
    Codec ID : A_AC3
    Duration : 22mn 5s
    Bit rate mode : Constant
    Bit rate : 192 Kbps
    Channel(s) : 2 channels
    Channel positions : Front: L R
    Sampling rate : 48.0 KHz
    Stream size : 30.3 MiB (6%)
    Title : MTV
    Language : Russian
    Audio #2
    ID : 3
    Format : AC-3
    Format/Info : Audio Coding 3
    Mode extension : CM (complete main)
    Codec ID : A_AC3
    Duration : 22mn 5s
    Bit rate mode : Constant
    Bit rate : 192 Kbps
    Channel(s) : 2 channels
    Channel positions : Front: L R
    Sampling rate : 48.0 KHz
    Stream size : 30.3 MiB (6%)
    Title : English
    Text
    ID : 4
    Format : UTF-8
    Codec ID : S_TEXT/UTF8
    Codec ID/Info : UTF-8 Plain Text
    Title : English
    Доп. информация
  • jhonny2 (куплено в iTunes, взломано, выложено в сеть)
  • Особая благодарность Bigborman за финансирование, а также работу с аудио и субтитрами этого сезона
  • Звуковые дорожки и субтитры из личного архива Bigborman
  • Английская дорожка с оригинального ДВД, стерео, ас3 192кб/с (оригиналы ААС были моно)

    Сезон 7

    Список серий
  • 701 Я люблю кантри / I'm a Little Bit Country
  • 702 Сумасшедшие калеки / Krazy Kripples
  • 703 Туалетная бумага / Toilet Paper
  • 704 Шоу закрыто / Cancelled
  • 705 Толстая задница и тупая башка / Fat Butt and Pancake Head
  • 706 Маленькие борцы с преступностью / Lil' Crime Stoppers
  • 707 Алчность краснокожего / Red Man's Greed
  • 708 Педики Южного Парка / South Park Is Gay
  • 709 Тяжёлый христианский рок / Christian Rock Hard
  • 710 Серый рассвет / Grey Dawn
  • 711 Каса Бонита / Casa Bonita
  • 712 Всё о мормонах / All About Mormons
  • 713 Завязывай! / Butt Out
  • 714 Изюминки / Raisins
  • 715 Рождество в Канаде / It's Christmas in Canada
    Технические параметры
    Качество: WEB-DL 720р
    Кодек: Н 264
    Формат (контейнер): MKV
    Разрешение: 1280х720
    Битрейт: ~ 3000 Кбит/сек
    Аудио 1: 48 КГц AC3 2.0 192k - MTV
    Аудио 2: 48 КГц AC3 2.0 192k - Английский
    Аудио: 48 КГц AC3 2.0 192k - Украинский (отдельным файлом)
    Субтитры: SRT / UTF-8 - Английские

    Media Info

    Код:General
    Complete name : /South Park/South Park, Season 7 [MTV] WEB-DL 720p/01 I'm a Little Bit Country (MTV) WEB-DL 720p - by jhonny2.mkv
    Format : Matroska
    File size : 533 MiB
    Duration : 22mn 5s
    Overall bit rate : 3 372 Kbps
    Movie name : 04 I'm a Little Bit Country - by jhonny2
    Encoded date : UTC 2011-09-14 07:24:05
    Writing application : mkvmerge v4.9.1 ('Ich will') сборка от Aug 10 2011 09:31:20
    Writing library : libebml v1.2.1 + libmatroska v1.2.0
    Video
    ID : 1
    Format : AVC
    Format/Info : Advanced Video Codec
    Format profile : High@L3.1
    Format settings, CABAC : No
    Format settings, ReFrames : 2 frames
    Muxing mode : Container profile=Unknown@3.1
    Codec ID : V_MPEG4/ISO/AVC
    Duration : 22mn 5s
    Bit rate : 2 921 Kbps
    Width : 1 280 pixels
    Height : 720 pixels
    Display aspect ratio : 16:9
    Frame rate : 23.976 fps
    Color space : YUV
    Chroma subsampling : 4:2:0
    Bit depth : 8 bits
    Scan type : Progressive
    Bits/(Pixel*Frame) : 0.132
    Stream size : 462 MiB (87%)
    Color primaries : BT.709-5, BT.1361, IEC 61966-2-4, SMPTE RP177
    Transfer characteristics : BT.709-5, BT.1361
    Matrix coefficients : BT.709-5, BT.1361, IEC 61966-2-4 709, SMPTE RP177
    Audio #1
    ID : 2
    Format : AC-3
    Format/Info : Audio Coding 3
    Format profile : Dolby Digital
    Mode extension : CM (complete main)
    Codec ID : A_AC3
    Duration : 22mn 5s
    Bit rate mode : Constant
    Bit rate : 192 Kbps
    Channel(s) : 2 channels
    Channel positions : Front: L R
    Sampling rate : 48.0 KHz
    Stream size : 30.3 MiB (6%)
    Title : MTV
    Language : Russian
    Audio #2
    ID : 3
    Format : AC-3
    Format/Info : Audio Coding 3
    Format profile : Dolby Digital
    Mode extension : CM (complete main)
    Codec ID : A_AC3
    Duration : 22mn 5s
    Bit rate mode : Constant
    Bit rate : 192 Kbps
    Channel(s) : 2 channels
    Channel positions : Front: L R
    Sampling rate : 48.0 KHz
    Stream size : 30.3 MiB (6%)
    Title : English
    Text
    ID : 4
    Format : UTF-8
    Codec ID : S_TEXT/UTF8
    Codec ID/Info : UTF-8 Plain Text
    Title : English
    Доп. информация
  • Релиз - jhonny2 (куплено в iTunes, взломано, выложено в сеть, а также работа с аудио и субтитрами для этого релиза)
  • При размещении на других ресурсах указывайте авторство
  • Особая благодарность DaZorg за финансовую поддержку при покупке этого сезона
  • Английская дорожка с оригинального ДВД, стерео, ас3 192кб/с (оригиналы ААС были моно)

    Сезон 8

    Список серий
  • 801 Славные времена с оружием ( Good Times With Weapons) - 17.03.04
  • 802 На стеройдах (Up the Down Steroid) - 24.03.04
  • 803 Страсти еврея (The Passion of the Jew) - 31.03.04
  • 804 Тебя вы*ли в ж (You Got F'd in the A) - 07.04.04
  • 805 Зашибатор (Awesome-O) - 14.04.04
  • 806 Джеферсоны (The Jeffersons) - 21.04.04
  • 807 Эмигранты (Goobacks) - 28.04.04
  • 808 Клизма и какашка (Douche and Turd) - 27.10.04
  • 809 Наступление Уолл-Марта (Something Wall-Mart This Way Comes) - 03.11.04
  • 810 Детский сад (Preschool) - 10.11.04
  • 811 В погоне за рейтингами (Quest for Ratings) - 17.11.04
  • 812 Видеонабор тупой испорченной шлюши (Stupid Spoiled W***e Video Playset) - 01.12.04
  • 813 Удивительный дар Картмана (Cartman's Incredible Gift) - 08.12.04
  • 814 Рождество у лесных тварей (Woodland Critter Christmas) - 15.12.04
    Технические параметры
    Качество: WEB-DL 720р
    Кодек: Н 264
    Формат (контейнер): MKV
    Разрешение: 1280х720
    Битрейт: ~ 3000 Кбит/сек
    Аудио 1: 48 КГц AC3 2.0 192k - MTV (с DVD от Shop Spriengfield)
    Аудио 2: 48 КГц AAC 2.0 160k - Английский
    Аудио: 48 КГц AC3 2.0 192k - Украинский (отдельным файлом)
    Субтитры: SRT / UTF-8 - Русские / Английские

    Media Info

    Код:Общее
    Полное имя : South Park, Season 8 [MTV] WEB-DL 720p\01 Good Times With Weapons (MTV) WEB-DL 720p - by jhonny2.mkv
    Формат : Matroska
    Размер файла : 675 МиБ
    Продолжительность : 22 м.
    Общий поток : 4254 Кбит/сек
    Название фильма : South Park Episode 801 Good Times With Weapons - by jhonny2
    Дата кодирования : UTC 2010-11-06 06:32:52
    Программа кодирования : mkvmerge v3.3.0 ('Language') built on Mar 24 2010 14:59:24
    Библиотека кодирования : libebml v0.8.0 + libmatroska v0.9.0
    Видео
    Идентификатор : 1
    Формат : AVC
    Формат/Информация : Advanced Video Codec
    Профайл формата : High@L3.1
    Параметры CABAC формата : Нет
    Параметры ReFrames формата : 2 кадры
    Режим смешивания : Container profile=Unknown@3.1
    Идентификатор кодека : V_MPEG4/ISO/AVC
    Продолжительность : 22 м.
    Ширина : 1280 пикс.
    Высота : 720 пикс.
    Соотношение кадра : 16:9
    Частота кадров : 23,976 кадр/сек
    ColorSpace : YUV
    ChromaSubsampling : 4:2:0
    BitDepth/String : 8 бит
    Тип развёртки : Прогрессивная
    Язык : English
    Основные цвета : BT.709-5, BT.1361, IEC 61966-2-4, SMPTE RP177
    Характеристики трансфера : BT.709-5, BT.1361
    Коэффициенты матрицы : BT.709-5, BT.1361, IEC 61966-2-4 709, SMPTE RP177
    Аудио #1
    Идентификатор : 2
    Формат : AC-3
    Формат/Информация : Audio Coding 3
    Format_Settings_ModeExtension : CM (complete main)
    Идентификатор кодека : A_AC3
    Продолжительность : 22 м.
    Вид битрейта : Постоянный
    Битрейт : 192 Кбит/сек
    Канал(ы) : 2 канала(ов)
    Расположение каналов : Front: L R
    Частота : 48,0 КГц
    Размер потока : 30,5 МиБ (5%)
    Заголовок : AC3 2.0 @ 192 kbps [MTV]
    Язык : Russian
    Аудио #2
    Идентификатор : 3
    Формат : AAC
    Формат/Информация : Advanced Audio Codec
    Версия формата : Version 4
    Профайл формата : LC
    Параметры SBR формата : Нет
    Идентификатор кодека : A_AAC
    Продолжительность : 22 м.
    Канал(ы) : 2 канала(ов)
    Расположение каналов : Front: L R
    Частота : 48,0 КГц
    Язык : English
    Текст #1
    Идентификатор : 4
    Формат : UTF-8
    Идентификатор кодека : S_TEXT/UTF8
    Идентификатор кодека/Информация : UTF-8 Plain Text
    Язык : Russian
    Текст #2
    Идентификатор : 5
    Формат : UTF-8
    Идентификатор кодека : S_TEXT/UTF8
    Идентификатор кодека/Информация : UTF-8 Plain Text
    Язык : English
    Доп. информация
  • Релиз - jhonny2 (куплено в iTunes, взломано, выложено в сеть, а также работа с аудио и субтитрами для этого релиза)
  • При размещении на других ресурсах указывайте авторство
  • Особая благодарность DaZorg и iPawner за финансовую поддержку при покупке этого сезона
    1080р
    [www.cybertorrent.ru].t1338.torrent 
    Торрент: Зарегистрирован [ 2018-02-16 03:41 ] · 98CA284CDA0D9FFD86D8C1479FADBCE5AB3FC374

    Скачать .torrent

    Скачать

    186 KB

    Статус: проверено
    Скачан: 0 раз
    Размер: 34,14 GB
  • Профиль [ЛС]
    Показать сообщения:    

    Текущее время: 13-Дек 15:53

    Часовой пояс: UTC ± 0



    Вы не можете начинать темы
    Вы не можете отвечать на сообщения
    Вы не можете редактировать свои сообщения
    Вы не можете удалять свои сообщения
    Вы не можете голосовать в опросах
    Вы не можете прикреплять файлы к сообщениям
    Вы можете скачивать файлы
    Torrents24.ru открытый BitTorrent Torrents24.pl открытый BitTorrent CyberTorrent.ru открытый BitTorrent BtList.ru рейтинг BitTorrent трекеров Яндекс.Метрика