BitTorrent клиенты



Жетулиу / Getúlio (Жоао Жардим / João Jardim) [2014, Бразилия, исторический, политический, детектив, DVDRip] + Sub Rus + Original Por

Ответить на тему
 
Автор Сообщение

Серёга ®

Пол: Не указан

Стаж: 1 год

Сообщений: 292

Создавать темы 05-Фев-2018 18:16

[Цитировать]

Жетулиу / Getúlio
Страна: Бразилия
Жанр: исторический, политический, детектив
Год выпуска: 2014
Продолжительность: 01:40:20
Перевод: Субтитры
Субтитры: русские
Оригинальная аудиодорожка: португальский
Режиссер: Жоао Жардим / João Jardim
В ролях: Тони Рамос, Дрика Мораэс, Алешандри Боржис, Тьяго Хустино, Клариссе Абужамра, Каку Барези, Мишел Берковиш, Исаак Бернат, Люсиано Киролли
Описание: 1954-й год. Накануне президентских выборов в Бразилии на одного из лидеров оппозиции совершена попытка покушения. Подозреваются люди из ближайшего окружения действующего главы государства и сам президент Жетулиу Варгас...
Доп. информация: Рип и субтитры из сети. Перевод - enoeno
Сэмпл: http://sendfile.su/1393838
Качество видео: DVDRip
Формат видео: AVI
Видео: XVID, 1 697 Kbps, 720 x 360, 29.970 fps
Аудио: AC-3, 256 Kbps, 2 channels, 48.0 KHz
Формат субтитров: softsub (SRT)

Образец субтитров

1
00:02:34,585 --> 00:02:37,653
Только жертвуя жизнью
2
00:02:37,654 --> 00:02:41,192
можно исправить ошибки и неудачи.
3
00:02:43,391 --> 00:02:47,749
Это было 24 года назад, когда я
написал так в моем дневнике,

4
00:02:47,750 --> 00:02:51,313
прямо перед посадкой
в поезд из Порту-Алегри

5
00:02:51,687 --> 00:02:53,922
в Рио-де-Жанейро.
6
00:02:54,320 --> 00:02:58,518
Моя цель состояла в том, чтобы
стать президентом республики.

7
00:02:58,765 --> 00:03:00,588
Это была длинная поездка.
8
00:03:00,778 --> 00:03:03,130
15 лет как президент.
9
00:03:04,021 --> 00:03:06,471
Я начал как лидер революции,
10
00:03:06,472 --> 00:03:08,303
готовый изменить Бразилию.
11
00:03:08,860 --> 00:03:12,216
Вскоре я столкнулся
с двумя контрреволюциями.

12
00:03:12,217 --> 00:03:17,174
Больше чем 1000 убитых.
7000 членов оппозиции арестовали.

13
00:03:17,433 --> 00:03:20,175
Многие были замучены.
14
00:03:20,510 --> 00:03:22,782
Я был диктатором.
15
00:03:23,426 --> 00:03:27,183
Я оказался выше всех, и я
не сожалею об этом.

16
00:03:27,184 --> 00:03:30,769
Цензурирование СМИ,
подавление конгресса.

17
00:03:30,957 --> 00:03:33,577
Отмена президентских выборов.
18
00:03:33,578 --> 00:03:36,222
Я всегда управлял ради народа.
19
00:03:36,463 --> 00:03:40,285
И я чувствовал себя любимым им.

MediaInfo

General
Complete name : I:\Getulio.2014.DVDRiP\Getulio.2014.DVDRiP.XviD.AC3.avi
Format : AVI
Format/Info : Audio Video Interleave
File size : 1.38 GiB
Duration : 1h 40mn
Overall bit rate : 1 965 Kbps
Writing application : VirtualDubMod 1.5.4.1 (build 2178/release)
Writing library : VirtualDubMod build 2178/release
Video
ID : 0
Format : MPEG-4 Visual
Format profile : Advanced Simple@L5
Format settings, BVOP : 2
Format settings, QPel : No
Format settings, GMC : No warppoints
Format settings, Matrix : Default (H.263)
Codec ID : XVID
Codec ID/Hint : XviD
Duration : 1h 40mn
Bit rate : 1 697 Kbps
Width : 720 pixels
Height : 360 pixels
Display aspect ratio : 2.35:1
Frame rate : 29.970 fps
Color space : YUV
Chroma subsampling : 4:2:0
Bit depth : 8 bits
Scan type : Progressive
Compression mode : Lossy
Bits/(Pixel*Frame) : 0.218
Stream size : 1.19 GiB (86%)
Writing library : XviD 65
Audio
ID : 1
Format : AC-3
Format/Info : Audio Coding 3
Mode extension : CM (complete main)
Format settings, Endianness : Big
Codec ID : 2000
Duration : 1h 40mn
Bit rate mode : Constant
Bit rate : 256 Kbps
Channel(s) : 2 channels
Channel positions : Front: L R
Sampling rate : 48.0 KHz
Bit depth : 16 bits
Compression mode : Lossy
Stream size : 184 MiB (13%)
Alignment : Split accross interleaves
Interleave, duration : 33 ms (1.00 video frame)
Interleave, preload duration : 500 ms

Скриншот c названием фильма

Скриншоты




[Профиль] [ЛС]
Показать сообщения:    
Ответить на тему

Текущее время: 20-Фев 06:59

Часовой пояс: UTC + 3



Вы не можете начинать темы
Вы не можете отвечать на сообщения
Вы не можете редактировать свои сообщения
Вы не можете удалять свои сообщения
Вы не можете голосовать в опросах
Вы не можете прикреплять файлы к сообщениям
Вы можете скачивать файлы