BitTorrent клиенты



Зак и Мири снимают порно / Zack and Miri Make a Porno (Кевин Смит / Kevin Smith) [2008, США, комедия, мелодрама, BDRip 720p]

Ответить на тему
 
Автор Сообщение

Вектор ®

Пол: Не указан

Стаж: 1 год

Сообщений: 4452

Создавать темы 05-Фев-2018 18:10

[Цитировать]

Зак и Мири снимают порно / Zack and Miri Make a Porno-Год выпуска: 2008
Страна: США, Blue Askew
Жанр: Комедия, мелодрама
Продолжительность: 01:41:34
Перевод: Профессиональный (полное дублирование)
Русские субтитры: на бонусы
Режиссер: Кевин Смит
В ролях: Элизабет Бэнкс, Сет Роген, Джейсон Мьюз, Крэйг Робинсон, Трейси Лордс, Рики Мейб, Брэндон Рут, Джастин Лонг, Тиша Кэмпбелл, Дженнифер Швалбах Смит
Описание: Зак и Мири — два лучших друга, он и она вместе учились в первом классе, они вместе снимают квартиру, ездят на одном автомобиле. Однажды их задолжность по коммунальным платежам вырастает настолько, что у них отключают свет, воду и отопление. Они решили снять порно, чтобы поправить свое материальное положение. Зак работает в кофейне, и договаривается с сослуживцем, чтобы тот дал им денег для начала съемок. Они начинают подбор актеров, покупают камеру, делают костюмы, нанимают оператора, снимают павильон. Команда уже готова снимать порно в стиле звездных войн, но все костюмы и оборудование гибнут. Зак и Мири уже готовы отказаться от своего проекта, когда им приходит идея снимать порно прямо в той кофейне, где работает Зак. По ходу съёмок, Зак и Мири понимают, что они испытывают большие и сильные чувства друг к другу, о чем они даже не могли представить.
Доп. информация: Рип от DON

*Это второй фильм Кевина Смита, не входящий во «Вселенную View Askew», и первый, где события происходят не в Нью-Джерси. Несмотря на это, в фильме снимались многие актеры, игравшие в других фильмах Кевина Смита.

Качество: BDRip
Формат: MKV
Видео кодек: H.264
Аудио кодек: AC3
Видео: 1280x720, 23.976 fps, x264, 2pass, L4.1, 7710 Kbps,
Аудио 1: Русский: 48 kHz, AC3, 3/2 (L,C,R,l,r) + LFE ch, ~384 kbps
Аудио 2: Украинский: 48 kHz, AC3, 3/2 (L,C,R,l,r) + LFE ch, ~384 kbps
Аудио 3: Английский: 48 kHz, DTS, 3/2 (L,C,R,l,r) + LFE ch, ~1536 kbps
Субтитры: Русские(на бонусы), Английские, Czech,Norwegian,Romanian,Spanish,Swedish-

Скриншоты

MediaInfo

Общее
Уникальный идентификатор : 210311716029979278198321978929587196866 (0x9E38902AF9D4AB43B1B7A10A9F4C93C2)
Полное имя : T:\12345\Zack.and.Miri.Make.a.Porno.2008.720p.BluRay.DTS x264.HDCLUB.mkv
Формат : Matroska
Версия формата : Version 1
Размер файла : 7,09 Гбайт
Продолжительность : 1 ч. 41 м.
Общий поток : 9992 Кбит/сек
Название фильма : Zack and Miri Make a Porno (2008) 720p HDCLUB
Дата кодирования : UTC 2009-02-03 17:45:19
Программа кодирования : mkvmerge v2.4.0 ('Fumbling Towards Ecstasy') built on Oct 11 2008 20:13:15
Библиотека кодирования : libebml v0.7.7 + libmatroska v0.8.1
Видео
Идентификатор : 1
Формат : AVC
Формат/Информация : Advanced Video Codec
Профиль формата : High@L5.1
Параметр CABAC формата : Да
Параметр ReFrames формата : 8 кадров
Идентификатор кодека : V_MPEG4/ISO/AVC
Продолжительность : 1 ч. 41 м.
Битрейт : 7710 Кбит/сек
Ширина : 1280 пикселей
Высота : 720 пикселей
Соотношение сторон : 16:9
Режим частоты кадров : Постоянный
Частота кадров : 23,976 кадра/сек
Цветовое пространство : YUV
Субдискретизация насыщенности : 4:2:0
Битовая глубина : 8 бит
Тип развёртки : Прогрессивная
Бит/(Пиксели*Кадры) : 0.349
Размер потока : 5,33 Гбайт (75%)
Заголовок : ViDEO
Библиотека кодирования : x264 core 66 r1095M 8ae672f
Настройки программы : cabac=1 / ref=8 / deblock=1:-3:-3 / analyse=0x3:0x133 / me=umh / subme=9 / psy_rd=0.8:0.0 / mixed_ref=1 / me_range=36 / chroma_me=1 / trellis=2 / 8x8dct=1 / cqm=0 / deadzone=21,11 / chroma_qp_offset=-2 / threads=6 / nr=0 / decimate=1 / mbaff=0 / bframes=3 / b_pyramid=1 / b_adapt=2 / b_bias=0 / direct=3 / wpredb=1 / keyint=250 / keyint_min=25 / scenecut=40(pre) / rc=2pass / bitrate=7710 / ratetol=1.0 / qcomp=0.60 / qpmin=10 / qpmax=51 / qpstep=4 / cplxblur=20.0 / qblur=0.5 / ip_ratio=1.40 / pb_ratio=1.30 / aq=1:0.70
Язык : English
Default : Да
Forced : Нет
Аудио #1
Идентификатор : 2
Формат : AC-3
Формат/Информация : Audio Coding 3
Параметр Endianness формата : Big
Идентификатор кодека : A_AC3
Продолжительность : 1 ч. 41 м.
Вид битрейта : Постоянный
Битрейт : 384 Кбит/сек
Каналы : 6 каналов
Расположение каналов : Front: L C R, Side: L R, LFE
Частота : 48,0 КГц
Частота кадров : 31,250 кадров/сек (1536 spf)
Битовая глубина : 16 бит
Метод сжатия : С потерями
Размер потока : 279 Мбайт (4%)
Заголовок : AC3 5.1 384 Kbps
Язык : Russian
ServiceKind/String : Complete Main
Default : Да
Forced : Нет
Аудио #2
Идентификатор : 3
Формат : AC-3
Формат/Информация : Audio Coding 3
Параметр Endianness формата : Big
Идентификатор кодека : A_AC3
Продолжительность : 1 ч. 41 м.
Вид битрейта : Постоянный
Битрейт : 384 Кбит/сек
Каналы : 6 каналов
Расположение каналов : Front: L C R, Side: L R, LFE
Частота : 48,0 КГц
Частота кадров : 31,250 кадров/сек (1536 spf)
Битовая глубина : 16 бит
Метод сжатия : С потерями
Размер потока : 279 Мбайт (4%)
Заголовок : AC3 5.1 384 Kbps
Язык : Ukrainian
ServiceKind/String : Complete Main
Default : Нет
Forced : Нет
Аудио #3
Идентификатор : 4
Формат : DTS
Формат/Информация : Digital Theater Systems
Режим : 16
Параметр Endianness формата : Big
Идентификатор кодека : A_DTS
Продолжительность : 1 ч. 41 м.
Вид битрейта : Постоянный
Битрейт : 1510 Кбит/сек
Каналы : 6 каналов
Расположение каналов : Front: L C R, Side: L R, LFE
Частота : 48,0 КГц
Частота кадров : 93,750 кадра/сек (512 spf)
Битовая глубина : 24 бит
Метод сжатия : С потерями
Размер потока : 1,07 Гбайт (15%)
Заголовок : DTS 5.1 1536 Kbps
Язык : English
Default : Нет
Forced : Нет
Текст #1
Идентификатор : 5
Формат : UTF-8
Идентификатор кодека : S_TEXT/UTF8
Идентификатор кодека/Информация : UTF-8 Plain Text
Заголовок : На бонусы
Язык : Russian
Default : Да
Forced : Нет
Текст #2
Идентификатор : 6
Формат : UTF-8
Идентификатор кодека : S_TEXT/UTF8
Идентификатор кодека/Информация : UTF-8 Plain Text
Язык : English
Default : Нет
Forced : Нет
Текст #3
Идентификатор : 7
Формат : UTF-8
Идентификатор кодека : S_TEXT/UTF8
Идентификатор кодека/Информация : UTF-8 Plain Text
Язык : Czech
Default : Нет
Forced : Нет
Текст #4
Идентификатор : 8
Формат : UTF-8
Идентификатор кодека : S_TEXT/UTF8
Идентификатор кодека/Информация : UTF-8 Plain Text
Язык : Norwegian
Default : Нет
Forced : Нет
Текст #5
Идентификатор : 9
Формат : UTF-8
Идентификатор кодека : S_TEXT/UTF8
Идентификатор кодека/Информация : UTF-8 Plain Text
Язык : Romanian
Default : Нет
Forced : Нет
Текст #6
Идентификатор : 10
Формат : UTF-8
Идентификатор кодека : S_TEXT/UTF8
Идентификатор кодека/Информация : UTF-8 Plain Text
Язык : Spanish
Default : Нет
Forced : Нет
Текст #7
Идентификатор : 11
Формат : UTF-8
Идентификатор кодека : S_TEXT/UTF8
Идентификатор кодека/Информация : UTF-8 Plain Text
Язык : Swedish
Default : Нет
Forced : Нет
[Профиль] [ЛС]
Показать сообщения:    
Ответить на тему

Текущее время: 20-Фев 07:02

Часовой пояс: UTC + 3



Вы не можете начинать темы
Вы не можете отвечать на сообщения
Вы не можете редактировать свои сообщения
Вы не можете удалять свои сообщения
Вы не можете голосовать в опросах
Вы не можете прикреплять файлы к сообщениям
Вы можете скачивать файлы