BitTorrent клиенты



Отступники / The Departed (Мартин Скорсезе / Martin Scorsese) [2006, США, Гонконг, триллер, криминал, детектив, BDRemux 1080p]

Ответить на тему
 
Автор Сообщение

Вектор ®

Пол: Не указан

Стаж: 1 год

Сообщений: 4450

Создавать темы 05-Фев-2018 18:10

[Цитировать]

Отступники / The Departed
Год выпуска: 2006
Страна: США
Жанр: Боевик, драма
Продолжительность: 2:31:25
Перевод: Профессиональный (полное дублирование)
Русские субтитры: есть
Режиссер: Мартин Скорсезе / Martin Scorsese
В ролях: Леонардо ДиКаприо, Мэтт Дэймон, Джек Николсон, Марк Уолберг, Мартин Шин, Рэй Уинстон, Алек Болдуин, Кевин Корриган, Энтони Андерсон, Фармига Вера
Описание: Полиция Бостона засылает своего агента под прикрытием в крупнейшую ирландскую мафиозную группировку, орудующую в штате. Тем временем ирландцы внедряют самого перспективного бойца в ряды полиции. Задача обоих быть глазами и ушами своих боссов в стане врага. Но долго так продолжаться не может: обе стороны понимают, что в их рядах предатель. Разоблачение приведет к кровавой бойне, да и самим агентам теперь не так просто подставить под удар своих новых "коллег".
Доп. информация: Источник - The Departed 2006 1080p Blu-ray (TF1 Studio)
Фильм был назван лучшей картиной года на 79-й ежегодной церемонии вручения премии "Оскар" Американской киноакадемии (2006). Всего фильм получили четыре "Оскара", в том числе за лучший монтаж и за лучший адаптированный сценарий.
Это полная версия фильма, есть 20 секунд без перевода.
Для английских надписей присутствует надпись на французском (неотключаемо).
Качество: BD Remux
Формат: MKV
Видео кодек: H.264
Видео: 1920x1080, 23.976 fps, MPEG-4 AVC, 19651 kbps VBR (работает перемотка по главам)
Аудио#1: Русский: DD 5.1 (AC3), 48 kHz, 448 kbps (Киномания)
Аудио#2: Русский: DTS 5.1 (DTS), 48 kHz, 768 kbps avg (одноголосый закадровый, Немахов)
Аудио#3: Английский: DTS Hi-Res, 48 kHz, 3840 kbps (core DTS 5.1 1536 kbps)
Субтитры: Rus, Eng (VobSub)

MediaInfo

Общее
Уникальный идентификатор : 228035732774106935213148453740924041054 (0xAB8E15A943404DB29DC7140587EEF75E)
Полное имя : W:\12345\The Departed.2006.Blu-ray.1080p.AVC.Rus.Eng.mkv
Формат : Matroska
Версия формата : Version 1
Размер файла : 26,1 Гбайт
Продолжительность : 2 ч. 31 м.
Режим общего битрейта : Переменный
Общий поток : 24,7 Мбит/сек
Дата кодирования : UTC 2009-02-01 20:48:27
Программа кодирования : mkvmerge v2.4.1 ('Use Me') built on Dec 5 2008 18:30:05
Библиотека кодирования : libebml v0.7.7 + libmatroska v0.8.1
Видео
Идентификатор : 1
Формат : AVC
Формат/Информация : Advanced Video Codec
Профиль формата : High@L4.1
Параметр CABAC формата : Да
Параметр ReFrames формата : 4 кадра
Параметр GOP формата : M=3, N=18
Идентификатор кодека : V_MPEG4/ISO/AVC
Продолжительность : 2 ч. 31 м.
Вид битрейта : Переменный
Битрейт : 19,2 Мбит/сек
Максимальный битрейт : 40,0 Мбит/сек
Ширина : 1920 пикселей
Высота : 1080 пикселей
Соотношение сторон : 16:9
Режим частоты кадров : Постоянный
Частота кадров : 23,976 (24000/1001) кадра/сек
Стандарт вещания : NTSC
Цветовое пространство : YUV
Субдискретизация насыщенности : 4:2:0
Битовая глубина : 8 бит
Тип развёртки : Прогрессивная
Бит/(Пиксели*Кадры) : 0.386
Размер потока : 20,3 Гбайт (78%)
Язык : English
Default : Да
Forced : Нет
Цветовой диапазон : Limited
Основные цвета : BT.709
Характеристики трансфера : BT.709
Коэффициенты матрицы : BT.709
Аудио #1
Идентификатор : 2
Формат : AC-3
Формат/Информация : Audio Coding 3
Параметр Endianness формата : Big
Идентификатор кодека : A_AC3
Продолжительность : 2 ч. 31 м.
Вид битрейта : Постоянный
Битрейт : 448 Кбит/сек
Каналы : 6 каналов
Расположение каналов : Front: L C R, Side: L R, LFE
Частота : 48,0 КГц
Частота кадров : 31,250 кадров/сек (1536 spf)
Битовая глубина : 16 бит
Метод сжатия : С потерями
Размер потока : 485 Мбайт (2%)
Язык : Russian
ServiceKind/String : Complete Main
Default : Да
Forced : Нет
Аудио #2
Идентификатор : 3
Формат : DTS
Формат/Информация : Digital Theater Systems
Режим : 16
Параметр Endianness формата : Big
Идентификатор кодека : A_DTS
Продолжительность : 2 ч. 31 м.
Вид битрейта : Постоянный
Битрейт : 755 Кбит/сек
Каналы : 6 каналов
Расположение каналов : Front: L C R, Side: L R, LFE
Частота : 48,0 КГц
Частота кадров : 93,750 кадра/сек (512 spf)
Битовая глубина : 24 бит
Метод сжатия : С потерями
Размер потока : 817 Мбайт (3%)
Язык : Russian
Default : Нет
Forced : Нет
Аудио #3
Идентификатор : 4
Формат : DTS
Формат/Информация : Digital Theater Systems
Профиль формата : HRA / Core
Режим : 16
Параметр Endianness формата : Big
Идентификатор кодека : A_DTS
Продолжительность : 2 ч. 31 м.
Вид битрейта : Постоянный
Битрейт : 3840 Кбит/сек / 1509 Кбит/сек
Каналы : 6 каналов
Расположение каналов : Front: L C R, Side: L R, LFE
Частота : 48,0 КГц
Частота кадров : 93,750 кадра/сек (512 spf)
Битовая глубина : 16 бит / 24 бит
Метод сжатия : С потерями
Размер потока : 4,06 Гбайт (16%)
Язык : English
Default : Нет
Forced : Нет
Текст #1
Идентификатор : 5
Формат : UTF-8
Идентификатор кодека : S_TEXT/UTF8
Идентификатор кодека/Информация : UTF-8 Plain Text
Default : Да
Forced : Нет
Текст #2
Идентификатор : 6
Формат : VobSub
Режим смешивания : zlib
Идентификатор кодека : S_VOBSUB
Идентификатор кодека/Информация : Picture based subtitle format used on DVDs
Язык : Russian
Default : Нет
Forced : Нет
Текст #3
Идентификатор : 7
Формат : VobSub
Режим смешивания : zlib
Идентификатор кодека : S_VOBSUB
Идентификатор кодека/Информация : Picture based subtitle format used on DVDs
Язык : English
Default : Нет
Forced : Нет
Меню
00:00:00.000 : en:00:00:00.000
00:08:21.626 : en:00:08:21.626
00:17:36.347 : en:00:17:36.347
00:27:03.330 : en:00:27:03.330
00:32:20.981 : en:00:32:20.981
00:42:08.568 : en:00:42:08.568
00:51:27.584 : en:00:51:27.584
00:59:47.918 : en:00:59:47.918
01:09:55.691 : en:01:09:55.691
01:19:32.393 : en:01:19:32.393
01:30:23.126 : en:01:30:23.126
01:41:43.222 : en:01:41:43.222
01:49:01.785 : en:01:49:01.785
01:57:32.629 : en:01:57:32.629
02:06:07.435 : en:02:06:07.435
02:16:25.094 : en:02:16:25.094
02:24:50.765 : en:02:24:50.765
02:31:25.660 : en:02:31:25.660

Скриншоты

[Профиль] [ЛС]
Показать сообщения:    
Ответить на тему

Текущее время: 19-Фев 16:23

Часовой пояс: UTC + 3



Вы не можете начинать темы
Вы не можете отвечать на сообщения
Вы не можете редактировать свои сообщения
Вы не можете удалять свои сообщения
Вы не можете голосовать в опросах
Вы не можете прикреплять файлы к сообщениям
Вы можете скачивать файлы