BitTorrent клиенты



Бурлеск / Burlesque (Стив Энтин / Steve Antin) [2010, США, мюзикл, драма, мелодрама, музыка, DVB] [Open Matte / Локализированный видеоряд] Dub + Eng

Ответить на тему
 
Автор Сообщение

Angel ®

Пол: Не указан

Стаж: 1 год

Сообщений: 1346

Создавать темы 05-Фев-2018 18:16

[Цитировать]

Бурлеск
Burlesque
Страна: США
Жанр: мюзикл, драма, мелодрама, музыка
Продолжительность: 01:49:32
Год выпуска: 2010
Перевод: Профессиональный (дублированный)
Субтитры: отсутствуют
Оригинальная аудиодорожка: английский-Режиссёр: Стив Энтин: Steve Antin
В ролях: Кристина Агилера, Шер, Кэм Жиганде, Кристен Белл, Эрик Дэйн, Алан Камминг, Джулианна Хаф, Питер Галлахер, Стэнли Туччи, Дианна Агрон.-О фильме: Али — молодая амбициозная девушка из маленького городка с чудесным голосом, совсем недавно потеряла своих родителей. Теперь никому не нужная, она отправляется в большой город Лос-Анджелес, где устраивается на работу у Тесс, хозяйки ночного клуба «Бурлеск». За короткое время она находит друзей, поклонников и любовь всей своей жизни. Но может ли сказка длиться вечно? Ведь немало людей завидует этой прекрасной танцовщице…-
Семпл: https://www.sendspace.com/file/hpz7ly-Качество: DVB [Хабар] (эфир 14.01.2018)
Формат: MKV
Видео: AVC, 720x576 @ 1047x576, 25 fps, ~1870 kbps, 0.177 bit/pixel
Аудио #1: [RUS] 48 kHz, AC3, 5.1 ch, 448 kbps
Аудио #2: [ENG] 48 kHz, AC3, 5.1 ch, 448 kbps

Mediainfo

Общее
Уникальный идентификатор : 181986745590939681678132951153498931293 (0x88E95F4DD76D7E8B92052B0DAA40405D)
Полное имя : F:\Burlesque.2010.DVB.AVC.Open.Matte.mkv
Формат : Matroska
Версия формата : Version 4 / Version 2
Размер файла : 2,12 Гбайт
Продолжительность : 1 ч. 49 м.
Общий поток : 2771 Кбит/сек
Дата кодирования : UTC 2018-01-21 10:47:15
Программа кодирования : mkvmerge v9.7.1 ('Pandemonium') 32bit
Библиотека кодирования : libebml v1.3.4 + libmatroska v1.4.5
Видео
Идентификатор : 1
Формат : AVC
Формат/Информация : Advanced Video Codec
Профиль формата : High@L3
Параметр CABAC формата : Да
Параметр RefFrames формата : 3 кадра
Идентификатор кодека : V_MPEG4/ISO/AVC
Продолжительность : 1 ч. 49 м.
Битрейт : 1870 Кбит/сек
Ширина : 720 пикселей
Высота : 576 пикселей
Соотношение сторон : 16:9
Режим частоты кадров : Переменный
Частота кадров : 25,443 кадров/сек
Частота кадров в оригинале : 25,000 кадров/сек
Стандарт вещания : Component
Цветовое пространство : YUV
Субдискретизация насыщенности : 4:2:0
Битовая глубина : 8 бит
Тип развёртки : Чересстрочная
Метод сохранения типа развёртки : Раздельные поля
Порядок развёртки : Верхнее поле первое
Бит/(Пиксели*Кадры) : 0.177
Размер потока : 1,43 Гбайт (68%)
Default : Да
Forced : Нет
Цветовой диапазон : Limited
Основные цвета : BT.601 PAL
Характеристики трансфера : BT.470 System B, BT.470 System G
Коэффициенты матрицы : BT.470 System B, BT.470 System G
Аудио #1
Идентификатор : 2
Формат : AC-3
Формат/Информация : Audio Coding 3
Параметр Endianness формата : Big
Идентификатор кодека : A_AC3
Продолжительность : 1 ч. 49 м.
Вид битрейта : Постоянный
Битрейт : 448 Кбит/сек
Каналы : 6 каналов
Расположение каналов : Front: L C R, Side: L R, LFE
Частота : 48,0 КГц
Частота кадров : 31,250 кадров/сек (1536 SPF)
Битовая глубина : 16 бит
Метод сжатия : С потерями
Размер потока : 351 Мбайт (16%)
Язык : Russian
ServiceKind/String : Complete Main
Default : Да
Forced : Нет
Аудио #2
Идентификатор : 3
Формат : AC-3
Формат/Информация : Audio Coding 3
Параметр Endianness формата : Big
Идентификатор кодека : A_AC3
Продолжительность : 1 ч. 49 м.
Вид битрейта : Постоянный
Битрейт : 448 Кбит/сек
Каналы : 6 каналов
Расположение каналов : Front: L C R, Side: L R, LFE
Частота : 48,0 КГц
Частота кадров : 31,250 кадров/сек (1536 SPF)
Битовая глубина : 16 бит
Метод сжатия : С потерями
Размер потока : 351 Мбайт (16%)
Язык : English
ServiceKind/String : Complete Main
Default : Нет
Forced : Нет

Скриншоты

WideScreen vs Open Matte



[Профиль] [ЛС]
Показать сообщения:    
Ответить на тему

Текущее время: 23-Фев 00:00

Часовой пояс: UTC + 3



Вы не можете начинать темы
Вы не можете отвечать на сообщения
Вы не можете редактировать свои сообщения
Вы не можете удалять свои сообщения
Вы не можете голосовать в опросах
Вы не можете прикреплять файлы к сообщениям
Вы можете скачивать файлы