BitTorrent клиенты



Девять жизней Рождества / The Nine Lives of Christmas (Марк Жан / Mark Jean) [2014, США, мелодрама, комедия, SATRip] DVO (т/к "Астана")

Ответить на тему
 
Автор Сообщение

Серёга ®

Пол: Не указан

Стаж: 1 год

Сообщений: 292

Создавать темы 05-Фев-2018 18:16

[Цитировать]

Девять жизней Рождества
The Nine Lives of Christmas
Страна: США
Жанр: мелодрама, комедия
Продолжительность: 01:25:59
Год выпуска: 2014
Перевод: Профессиональный (двухголосый закадровый)
Субтитры: отсутствуют-Режиссёр: Марк Жан: Mark Jean
В ролях: Брэндон Рут, Кимберли Састад, Стефани Беннетт, Челси Хоббс, Шон Тайсон, Далиас Блейк, Грегори Харрисон, Тоня Ли Альберс, Элисон Арая, Дженнифер Чжон-О фильме: После того, как бездомный кот поселяется в доме Закари, начинаются рождественские приключения двух молодых людей, которые в силу обстоятельств думают, что не готовы влюбиться…-Проф. перевод к данному фильму появляется в сети впервые.

Семпл: https://www.sendspace.com/file/9w6lqq-Качество: SATRip [ASTANA TV] (эфир 14.01.2018)
Формат: AVI
Видео: XviD 67, 720x400 (16:9), 25 fps, ~2048 kbps, 0.284 bit/pixel
Аудио: [RUS] 48 kHz, AC3, 1 ch, 192 kbps

Mediainfo

Общее
Полное имя : F:\Девять жизней Рождества (2014) [ASTANA TV].avi
Формат : AVI
Формат/Информация : Audio Video Interleave
Размер файла : 1,35 Гбайт
Продолжительность : 1 ч. 25 м.
Общий поток : 2250 Кбит/сек
Программа кодирования : VirtualDubMod 1.5.10.2 (build 2540/release)
Библиотека кодирования : VirtualDubMod build 2540/release
Видео
Идентификатор : 0
Формат : MPEG-4 Visual
Профиль формата : Advanced Simple@L5
Параметр BVOP формата : 2
Параметр QPel формата : Нет
Параметр GMC формата : Без точки перехода
Параметр матрицы формата : Default (H.263)
Идентификатор кодека : XVID
Идентификатор кодека/Подсказка : XviD
Продолжительность : 1 ч. 25 м.
Битрейт : 2048 Кбит/сек
Ширина : 720 пикселей
Высота : 400 пикселей
Соотношение сторон : 16:9
Частота кадров : 25,000 кадров/сек
Цветовое пространство : YUV
Субдискретизация насыщенности : 4:2:0
Битовая глубина : 8 бит
Тип развёртки : Прогрессивная
Метод сжатия : С потерями
Бит/(Пиксели*Кадры) : 0.284
Размер потока : 1,23 Гбайт (91%)
Библиотека кодирования : XviD 67
Аудио
Идентификатор : 1
Формат : AC-3
Формат/Информация : Audio Coding 3
Параметр Endianness формата : Big
Идентификатор кодека : 2000
Продолжительность : 1 ч. 25 м.
Вид битрейта : Постоянный
Битрейт : 192 Кбит/сек
Каналы : 1 канал
Расположение каналов : Front: C
Частота : 48,0 КГц
Частота кадров : 31,250 кадров/сек (1536 SPF)
Битовая глубина : 16 бит
Метод сжатия : С потерями
Размер потока : 118 Мбайт (9%)
Выравнивание : Разделение по промежуткам
Продолжительность промежутка : 40 мс. (1,00 видеокадр)
Время предзагрузки промежутка : 500 мс.
ServiceKind/String : Complete Main

Скриншоты

[Профиль] [ЛС]
Показать сообщения:    
Ответить на тему

Текущее время: 20-Фев 06:55

Часовой пояс: UTC + 3



Вы не можете начинать темы
Вы не можете отвечать на сообщения
Вы не можете редактировать свои сообщения
Вы не можете удалять свои сообщения
Вы не можете голосовать в опросах
Вы не можете прикреплять файлы к сообщениям
Вы можете скачивать файлы