Статистика раздачи
Размер:  1,01 GB   |    Зарегистрирован:  8 месяцев 3 дня   |    Скачан:  0 раз

Полного источника не было: Никогда

 
   
 
 

android ®

Пол:
Не указан
Стаж:
8 месяцев 4 дня
Сообщений:
79

Черепашки Ниндзя : Тайна происхождения (Дубляж EA) / Teenage Mutant Ninja Turtles: Secret of an origin(Dub EA)
Год выпуска: 2005
Страна: США
Жанр: Мультфильм, детский
Продолжительность: 1:02:57
Перевод: Профессиональный (полное дублирование)
Русские субтитры: нет
Режиссер: Сьюзан Блу
В ролях: Черепашки ниндзя
Описание: Леонардо! Рафаэль! Микеланджело! Донателло! Мудрый сэнсэй Мастер Сплинтер превратил юных черепашек в одну непобедимую зеленую боевую машину! Настало время! Обожаемая детьми во всем мире героическая четверка, полная неукротимой энергии, отправляется в суперновые мультприключения, расправляясь с негодяями, выслеживая злодеев и поглощая пиццу в безостановочном темпе.
Список серий:
1. Тайна происхождения Часть 1
2. Тайна происхождения Часть 2
3. Тайна происхождения Часть 3

Доп. информация: МЕГА ЭКСКЛЮЗИВ ДЛЯ ВСЕХ ФАНОВ TMNT!Итак эта кассета была куплена мной в 2006 году на ней полное дублирование ЕА, в то время как в России на лицензионных двд выпускались черепашки с закадровым переводом,в Беларуссии же выпустили видео кассеты с ДУБЛЯЖОМ!
Также в раздаче есть одтельно звуковая дорожка, если кто-то желает наложить на более качественный рип!Только незабывайте указывать у кого взяли материал!
Качество: VHSRip
Формат: MP4
Видео кодек: XviD
Аудио кодек: AAC
Видео: Xvid,640x480, 2 045 Kbps, 25.000 fps
Аудио: AAC, 126 Kbps , 2 channels.

Скриншоты

Отличие от других раздач

http://cybertorrent.ru/viewtopic.php?t=1268716 там закадровый!!!
Тут полное дублирование!Подтверждение Сэмпл

MediaInfo

General
Complete name : D:\Video\Мультсериалы\черепашки ниндзя\Cherepashki_nindzya_Novue_priklyucheniya\VHS\2 сезон\Taina_proishogdenia_vhsrip_grave_mc\Taina_proishogdenia_vhsrip_grave_mc.mp4
Format : MPEG-4
Format profile : Base Media / Version 2
Codec ID : mp42
File size : 978 MiB
Duration : 1h 2mn
Overall bit rate : 2 173 Kbps
Encoded date : UTC 2010-03-30 14:22:29
Tagged date : UTC 2010-03-30 14:24:50
Writing application : mp4creator 1.6.1d
Video
ID : 1
Format : MPEG-4 Visual
Format profile : Simple@L1
Format settings, BVOP : No
Format settings, QPel : No
Format settings, GMC : No warppoints
Format settings, Matrix : Default (H.263)
Codec ID : 20
Duration : 1h 2mn
Bit rate mode : Variable
Bit rate : 2 045 Kbps
Maximum bit rate : 6 537 Kbps
Width : 640 pixels
Height : 480 pixels
Display aspect ratio : 4:3
Frame rate mode : Constant
Frame rate : 25.000 fps
Resolution : 8 bits
Colorimetry : 4:2:0
Scan type : Progressive
Bits/(Pixel*Frame) : 0.266
Stream size : 921 MiB (94%)
Language : English
Encoded date : UTC 2010-03-30 14:22:29
Tagged date : UTC 2010-03-30 14:24:46
Audio
ID : 2
Format : AAC
Format/Info : Advanced Audio Codec
Format version : Version 4
Format profile : LC
Format settings, SBR : No
Codec ID : 40
Duration : 1h 2mn
Bit rate mode : Variable
Bit rate : 126 Kbps
Maximum bit rate : 171 Kbps
Channel(s) : 2 channels
Channel positions : L R
Sampling rate : 44.1 KHz
Stream size : 56.5 MiB (6%)
Language : English
Encoded date : UTC 2010-03-30 14:24:47
Tagged date : UTC 2010-03-30 14:24:50
[www.cybertorrent.ru].t1276.torrent 
Торрент: Зарегистрирован [ 2018-02-16 03:41 ] · D1E14AAEF3C1ACDB6A050424FED9CCE86DF3098A

Скачать .torrent

Скачать

11 KB

Статус: проверено
Скачан: 0 раз
Размер: 1,01 GB
Профиль [ЛС]
Показать сообщения:    

Текущее время: 20-Окт 02:35

Часовой пояс: UTC ± 0



Вы не можете начинать темы
Вы не можете отвечать на сообщения
Вы не можете редактировать свои сообщения
Вы не можете удалять свои сообщения
Вы не можете голосовать в опросах
Вы не можете прикреплять файлы к сообщениям
Вы можете скачивать файлы
Torrents24.ru открытый BitTorrent Torrents24.pl открытый BitTorrent CyberTorrent.ru открытый BitTorrent BtList.ru рейтинг BitTorrent трекеров Яндекс.Метрика