BitTorrent клиенты



Эффект Лазаря / The Lazarus Effect (Дэвид Гелб / David Gelb) [2015, США, ужасы, триллер, BDRip] AVO (Андрей Дольский) + VO (Неизвестный - отдельно)

Ответить на тему
 
Автор Сообщение

Серёга ®

Пол: Не указан

Стаж: 1 год

Сообщений: 292

Создавать темы 05-Фев-2018 18:16

[Цитировать]

Эффект Лазаря / The Lazarus Effect
Страна: США
Жанр: ужасы, триллер
Год выпуска: 2015
Продолжительность: 01:23:11
Перевод: Авторский (одноголосый закадровый) Андрей Дольский
Перевод 2: Одноголосый закадровый Неизвестный (отдельно)
Субтитры: нет
Режиссер: Дэвид Гелб / David Gelb
В ролях: Марк Дюпласс, Оливия Уайлд, Дональд Гловер, Эван Питерс, Сара Болгер, Рэй Уайз, Скотт Шелдон, Эмили Келавос, Джеймс Эрл
Описание: Группа учёных, пытающихся одним открытием сделать прорыв сразу в нескольких науках – Фрэнк, Зоуи и их коллеги планируют изобрести сыворотку, способную оживлять биологические организмы. Их работа находится на грани многих дисциплин и спорна с точки зрения этических норм, но опыты начинают приносить ощутимые результаты, что уже не позволяет исследователям остановится. Воскрешение собаки – настоящее чудо, однако за окрыляющей радостью следует серьёзное беспокойство: поведение пса меняется, а снимки его головного мозга показывают аномальную нейронную активность. Во время опыта по устранению этого дефекта в лаборатории происходит сбой: замыкание приводит к неполадкам, а Зоуи получает разряд и умирает. Фрэнк не может смириться с потерей, и наперекор команде он испытывает «лекарство» на своей девушке, возвращая её к жизни. Только вот Зоуи уже не такая, какой была раньше. Фрэнк решил поиграть в бога и теперь должен разбираться со страшными последствиями столь опрометчивого поступка…
Сэмпл: http://multi-up.com/1183351
Качество видео: BDRip (Исходник The.Lazarus.Effect.2015.1080p.BluRay.Remux.RU_DTS.DTS-HD.MA.5.1.mkv)
Формат видео: AVI
Видео: XviD 73, 720x304, (2,35:1), 23,976 fps, 2059 Кбит/с, 8 бит
Аудио: Русский (АС3, 6 ch (Front: L C R, Side: L R, LFE), 48,0 KHz, 448 Kbps) Андрей Дольский
Аудио 2: Русский (АС3, 6 ch (Front: L C R, Side: L R, LFE), 48,0 KHz, 448 Kbps) Неизвестный (отдельно)

MediaInfo

Общее
Полное имя : H:\Фильмы на трекер\Эффект_Лазаря_(ужасы, триллер 2015 год)_Leonard_Lew\Эффект_Лазаря_(ужасы, триллер 2015 год)_Leonard_Lew.avi
Формат : AVI
Формат/Информация : Audio Video Interleave
Размер файла : 1,46 Гбайт
Продолжительность : 1 ч. 23 м.
Общий поток : 2516 Кбит/сек
Программа кодирования : VirtualDubMod 1.5.10.3 | www.virtualdub-fr.org || (build 2550/release)
Библиотека кодирования : VirtualDubMod build 2550/release
Видео
Идентификатор : 0
Формат : MPEG-4 Visual
Профиль формата : Advanced Simple@L5
Параметр BVOP формата : 2
Параметр QPel формата : Нет
Параметр GMC формата : Без точки перехода
Параметр матрицы формата : Выборочная
Идентификатор кодека : XVID
Идентификатор кодека/Подсказка : XviD
Продолжительность : 1 ч. 23 м.
Битрейт : 2059 Кбит/сек
Ширина : 720 пикселей
Высота : 304 пикселя
Соотношение сторон : 2,35:1
Частота кадров : 23,976 (23976/1000) кадра/сек
Цветовое пространство : YUV
Субдискретизация насыщенности : 4:2:0
Битовая глубина : 8 бит
Тип развёртки : Прогрессивная
Метод сжатия : С потерями
Бит/(Пиксели*Кадры) : 0.392
Размер потока : 1,20 Гбайт (82%)
Библиотека кодирования : XviD 73
Аудио
Идентификатор : 1
Формат : AC-3
Формат/Информация : Audio Coding 3
Расширение режима : CM (complete main)
Параметр Endianness формата : Big
Идентификатор кодека : 2000
Продолжительность : 1 ч. 23 м.
Вид битрейта : Постоянный
Битрейт : 448 Кбит/сек
Каналы : 6 каналов
Расположение каналов : Front: L C R, Side: L R, LFE
Частота : 48,0 КГц
Частота кадров : 31,250 кадров/сек (1536 spf)
Метод сжатия : С потерями
Размер потока : 267 Мбайт (18%)
Выравнивание : Разделение по промежуткам
Продолжительность промежутка : 42 мс. (1,00 видеокадр)
Время предзагрузки промежутка : 500 мс.

Скриншот c названием фильма

Скриншоты

[Профиль] [ЛС]
Показать сообщения:    
Ответить на тему

Текущее время: 23-Фев 00:06

Часовой пояс: UTC + 3



Вы не можете начинать темы
Вы не можете отвечать на сообщения
Вы не можете редактировать свои сообщения
Вы не можете удалять свои сообщения
Вы не можете голосовать в опросах
Вы не можете прикреплять файлы к сообщениям
Вы можете скачивать файлы