BitTorrent клиенты



Город будущего / Natural City / Naechureol siti (Мин Бьюн Чун / Min Byung-chun) [2003, Корея Южная, фантастика, киберпанк, боевик, драма, BDRip 1080p] 2xDVO (EA-Cinema, Tycoon) + AVO (Сергей Кузнецов) + Sub 2xRus, Eng, Ger + Original Ger

Ответить на тему
 
Автор Сообщение

Angel ®

Пол: Не указан

Стаж: 1 год

Сообщений: 1346

Создавать темы 05-Фев-2018 18:16

[Цитировать]

Город будущего / Natural City / Naechureol siti
Страна: Корея Южная
Жанр: фантастика, киберпанк, боевик, драма
Год выпуска: 2003
Продолжительность: 01:52:42
-
Перевод 1: Профессиональный (двухголосый закадровый) EA-Cinema
Перевод 2: Профессиональный (двухголосый закадровый) Tycoon
Перевод 3: Авторский (одноголосый закадровый) Сергей Кузнецов
Субтитры: русские (2 вида) английские и немецкие
Оригинальная аудиодорожка: немецкий
-
Режиссер: Мин Бьюн Чун / Min Byung-chun
В ролях: Чи-тэ Ю, Джа-ун Ли, Рин Сео, Доо-хон Джун, Чан Юн
-
Описание: 2080 год. Люди укрываются в городах-государствах, так как в результате масштабных экологических катастроф и бесконечных войн большая часть мира лежит в руинах. Ученым удается клонировать человеческий ДНК и создать роботов с искусственным разумом, предназначенных для удовлетворения самых разных потребностей, даже сексуальных. Но роботы быстро выходят из строя, после чего подлежат уничтожению. Для выявления предназначенных «на слом» создано элитное подразделение спецназа. Любовь офицера этого отряда и робота-танцовщицы, срок жизни которой истек, ставит человечество на грань полной катастрофы…
Фильм в стиле кибер-драма красив во всём. От сцен боёв с ужасающей скоростью и техникой восточных единоборств. До мечтающих и любящих друг друга плывущих сердец. Мечта, мечта жить вечно и быть вместе, видимо именно это и хотелось бы выделить в ленте, не пытаясь её пересказать или указать на еще иные имеющиеся в ленте смысловые закаулочки. Каждый будет трактовать по своему, но любителю фантастики и не чурающемуся любовных линий между полами фильм должен понравиться.
Что касается технической стороны, то следует отметить, что спецэффекты выполнены на «отлично» – это и величественные пейзажи развалин старого города, и угрюмые металлические джунгли города будущего, и прекрасно срежиссированные перестрелки и рукопашные бои, в которых пресловутое «slo-mo» используется к месту и без излишества. Авторы фильма доказывают, что при достаточном финансировании их продукция ничем не уступает голливудским поделкам по уровню технической реализации.
-
Доп. информация:
-
Сэмпл: http://sendfile.su/1391532
-
Тип релиза: BDRip 1080p EPHEMERiD
Контейнер: MKV
Видео: 1920x808p (2.40:1), 24 fps, 5 621 kb/s, 0.151 bit/pixel
Аудио 1: русский / AC3 / 5.1 / 48 kHz / 448 kbps / 16 bits || DVO
Аудио 2: русский / AC3 / 5.1 / 48 kHz / 448 kbps / 16 bits || DVO
Аудио 3: русский / AC3 / 5.1 / 48 kHz / 448 kbps / 16 bits || AVO
Аудио 4: немецкий / DTS / 5.1 / 48 kHz / 1509 kbps / 24 bits || GER
Формат субтитров: softsub (SRT)
Главы: есть

MediaInfo

General
Unique ID : 183830543845040381517086113039405643487 (0x8A4C79939910B6D490AA588C756176DF)
Complete name : C:\Users\ALEX\Desktop\Фильмы\HD\Natural City.Naechureol siti.2003.BDRip.1080p.3xRus.Ger.Subs.Chpt.mkv
Format : Matroska
Format version : Version 4 / Version 2
File size : 6.67 GiB
Duration : 1 h 52 min
Overall bit rate : 8 477 kb/s
Movie name : Natural City.Naechureol siti.BDRip 1080p
Encoded date : UTC 2018-01-14 16:39:28
Writing application : mkvmerge v8.5.2 ('Crosses') 64bit
Writing library : libebml v1.3.3 + libmatroska v1.4.4
Video
ID : 1
Format : AVC
Format/Info : Advanced Video Codec
Format profile : High@L4.1
Format settings : CABAC / 5 Ref Frames
Format settings, CABAC : Yes
Format settings, RefFrames : 5 frames
Codec ID : V_MPEG4/ISO/AVC
Duration : 1 h 52 min
Bit rate : 5 621 kb/s
Width : 1 920 pixels
Height : 808 pixels
Display aspect ratio : 2.40:1
Frame rate mode : Constant
Frame rate : 24.000 FPS
Color space : YUV
Chroma subsampling : 4:2:0
Bit depth : 8 bits
Scan type : Progressive
Bits/(Pixel*Frame) : 0.151
Stream size : 4.42 GiB (66%)
Title : Natural City.Naechureol siti.BDRip 1080p
Writing library : x264 core 124 r2197 69a0443
Encoding settings : cabac=1 / ref=5 / deblock=1:-1:-1 / analyse=0x3:0x113 / me=umh / subme=7 / psy=1 / psy_rd=1.00:0.15 / mixed_ref=1 / me_range=16 / chroma_me=1 / trellis=1 / 8x8dct=1 / cqm=0 / deadzone=21,11 / fast_pskip=0 / chroma_qp_offset=-3 / threads=18 / sliced_threads=0 / nr=0 / decimate=1 / interlaced=0 / bluray_compat=0 / constrained_intra=0 / bframes=3 / b_pyramid=2 / b_adapt=1 / b_bias=0 / direct=1 / weightb=1 / open_gop=0 / weightp=2 / keyint=250 / keyint_min=24 / scenecut=40 / intra_refresh=0 / rc_lookahead=40 / rc=crf / mbtree=1 / crf=20.0 / qcomp=0.60 / qpmin=0 / qpmax=69 / qpstep=4 / ip_ratio=1.40 / aq=1:1.00
Language : German
Default : Yes
Forced : No
Audio #1
ID : 2
Format : AC-3
Format/Info : Audio Coding 3
Format settings, Endianness : Big
Codec ID : A_AC3
Duration : 1 h 52 min
Bit rate mode : Constant
Bit rate : 448 kb/s
Channel(s) : 6 channels
Channel positions : Front: L C R, Side: L R, LFE
Sampling rate : 48.0 kHz
Frame rate : 31.250 FPS (1536 SPF)
Bit depth : 16 bits
Compression mode : Lossy
Stream size : 361 MiB (5%)
Title : DVO (EA-Cinema)
Language : Russian
Service kind : Complete Main
Default : Yes
Forced : No
Audio #2
ID : 3
Format : AC-3
Format/Info : Audio Coding 3
Format settings, Endianness : Big
Codec ID : A_AC3
Duration : 1 h 52 min
Bit rate mode : Constant
Bit rate : 448 kb/s
Channel(s) : 6 channels
Channel positions : Front: L C R, Side: L R, LFE
Sampling rate : 48.0 kHz
Frame rate : 31.250 FPS (1536 SPF)
Bit depth : 16 bits
Compression mode : Lossy
Stream size : 361 MiB (5%)
Title : DVO (Tycoon)
Language : Russian
Service kind : Complete Main
Default : No
Forced : No
Audio #3
ID : 4
Format : AC-3
Format/Info : Audio Coding 3
Format settings, Endianness : Big
Codec ID : A_AC3
Duration : 1 h 52 min
Bit rate mode : Constant
Bit rate : 448 kb/s
Channel(s) : 6 channels
Channel positions : Front: L C R, Side: L R, LFE
Sampling rate : 48.0 kHz
Frame rate : 31.250 FPS (1536 SPF)
Bit depth : 16 bits
Compression mode : Lossy
Stream size : 361 MiB (5%)
Title : AVO (Сергей Кузнецов)
Language : Russian
Service kind : Complete Main
Default : No
Forced : No
Audio #4
ID : 5
Format : DTS
Format/Info : Digital Theater Systems
Mode : 16
Format settings, Endianness : Big
Codec ID : A_DTS
Duration : 1 h 52 min
Bit rate mode : Constant
Bit rate : 1 509 kb/s
Channel(s) : 6 channels
Channel positions : Front: L C R, Side: L R, LFE
Sampling rate : 48.0 kHz
Frame rate : 93.750 FPS (512 SPF)
Bit depth : 24 bits
Compression mode : Lossy
Stream size : 1.19 GiB (18%)
Title : Original (DUB)
Language : German
Default : No
Forced : No
Text #1
ID : 6
Format : UTF-8
Codec ID : S_TEXT/UTF8
Codec ID/Info : UTF-8 Plain Text
Duration : 1 h 47 min
Bit rate : 62 b/s
Count of elements : 905
Stream size : 49.6 KiB (0%)
Title : Full (by Tycoon)
Language : Russian
Default : No
Forced : No
Text #2
ID : 7
Format : UTF-8
Codec ID : S_TEXT/UTF8
Codec ID/Info : UTF-8 Plain Text
Duration : 1 h 47 min
Bit rate : 57 b/s
Count of elements : 812
Stream size : 45.3 KiB (0%)
Title : Full (by EA-Cinema)
Language : Russian
Default : No
Forced : No
Text #3
ID : 8
Format : UTF-8
Codec ID : S_TEXT/UTF8
Codec ID/Info : UTF-8 Plain Text
Duration : 1 h 47 min
Bit rate : 34 b/s
Count of elements : 896
Stream size : 27.1 KiB (0%)
Title : Full
Language : English
Default : No
Forced : No
Text #4
ID : 9
Format : UTF-8
Codec ID : S_TEXT/UTF8
Codec ID/Info : UTF-8 Plain Text
Duration : 1 h 47 min
Bit rate : 42 b/s
Count of elements : 735
Stream size : 33.5 KiB (0%)
Title : Full
Language : German
Default : No
Forced : No
Menu
00:00:00.000 : de:00:00:00.000
00:08:40.792 : de:00:08:40.792
00:21:04.583 : de:00:21:04.583
00:32:41.125 : de:00:32:41.125
00:44:15.833 : de:00:44:15.833
00:54:08.125 : de:00:54:08.125
01:03:44.167 : de:01:03:44.167
01:14:28.125 : de:01:14:28.125
01:23:11.667 : de:01:23:11.667
01:33:42.583 : de:01:33:42.583
01:41:15.875 : de:01:41:15.875
01:50:09.042 : de:01:50:09.042

Скриншоты

[Профиль] [ЛС]
Показать сообщения:    
Ответить на тему

Текущее время: 23-Фев 00:07

Часовой пояс: UTC + 3



Вы не можете начинать темы
Вы не можете отвечать на сообщения
Вы не можете редактировать свои сообщения
Вы не можете удалять свои сообщения
Вы не можете голосовать в опросах
Вы не можете прикреплять файлы к сообщениям
Вы можете скачивать файлы