Статистика раздачи
Размер:  1,55 GB   |    Зарегистрирован:  9 месяцев 24 дня   |    Скачан:  0 раз

Полного источника не было: Никогда

 
   
 
 

kersti ®

Пол:
Не указан
Стаж:
9 месяцев 25 дней
Сообщений:
174

Кот Саймона : Simons Cat Год выпуска: 2007-2017
Страна: Великобритания
Жанр: короткометражный мультсериал
Продолжительность: 82 х 00:02:00
Перевод: не требуется
субтитры: отсутствуют-Режиссёр: Саймон Тофилд : Simon Tofieldd-Описание: Кот Саймона (Simon’s Cat) — серия мультфильмов, созданная английским аниматором Саймоном Тофилдом (Simon Tofield). В каждом эпизоде главный персонаж — голодный домашний кот, использующий грубую тактику, чтобы хозяин покормил его, впустил, уделил внимание, чтобы поймать муху и так далее. Фильмы очень сильно напоминают поведение реальных кошек, хотя и в гротескном виде.-Релиз: -Качество: WEBRip 720p
Формат: MKV
Видео кодек: AVC
Аудио кодек: AAC
Видео: 1280x720, 25 fps, ~1500 kbps, 0.088 bit/pixel
Аудио: 44.1kHz, AAC, 2ch, 150kbps

Список серий

01. Котобудильник
02. Впусти меня
03. Вместо обеда
04. С меня хватит
05. Мушиная охота
06. Горячая точка
07. Кот Саймона - Снежная битва
08. Коробка
09. Трудности перевода
10. Перерыв на обед
11. За забором
12. Санта Кот
13. Липкая лента
14. Свободен
15. Сокровища
16. Кошки-мышки
17. Двойные неприятности
18. Тихий час
19. Дичь
20. Полка
21. Гадкий жабёнок
22. За стеклом
23. На старт, внимание…Ням!
24. Весна пришла
25. Апорт
26. Раз орех, два орех
27. Ловись, рыбка
28. Покорми меня
29. Зомбоящик
30. Клумба
31. Чемодан
32. Свет мой, зеркальце
33. Мохнатое чудовище
34. Рождественские шалости, часть 1
35. Рождественские шалости, часть 2
36. Сражен наповал
37. Время беситься
38. Котофото
39. Кипяточку
40. Большая стирка
41. Страшилка
42. Сим-сим, откройся
43. Мятный эффект
44. Бабочки в животе
45. Апрельский душ
46. Пицца
47. Котеловка
48. Голод не тетка
49. Снегокот
50. Любовь зла
51. Короткий заезд
52. Луговая охота
53. Грязные лапы
54. Лазерная игрушка
55. Боевая рыбалка
56. Объедки для кота
57. Монстр
58. Простыни
59. Руководство к зиме
60. Маленькая коробочка
61. Прелюдия к обеду
62. Как любить хозяина
63. Основное блюдо
64. Камуфляж
65. Рождественские приятности
66. Картонный день
67. Незваный ужин
68. Гид по коробочкам
69. Один в один
70. Охота пуще неволи
71. Пушистый лекарь
72. Йога по-кошачьи
73. Жадина
74. Паук
75. В засаде
76. Инструкция в День рождения
77. Почетное место
78. Быстрая еда
79. Маленький бесенок
80. Люди глазами Кота
81. Фейерверк
82. Рождественская пряжа

Скриншоты


MediaInfo

General
Unique ID : 219888887057344012126118322490160038315 (0xA56D0F27DFA156C7AE8B90441DA5C1AB)
Complete name : D:\Мульт\Simon's Cat.2007.WEBRip 720p\15. Кот Саймона - Сокровища.mkv
Format : Matroska
Format version : Version 4 / Version 2
File size : 9.36 MiB
Duration : 54 s 80 ms
Overall bit rate : 1 451 kb/s
Encoded date : UTC 2017-06-23 10:19:19
Writing application : mkvmerge v12.0.0 ('Trust / Lust') 64bit
Writing library : libebml v1.3.4 + libmatroska v1.4.5
Video
ID : 1
Format : AVC
Format/Info : Advanced Video Codec
Format profile : High@L4
Format settings, CABAC : Yes
Format settings, ReFrames : 3 frames
Codec ID : V_MPEG4/ISO/AVC
Duration : 54 s 40 ms
Bit rate : 1 288 kb/s
Nominal bit rate : 2 569 kb/s
Width : 1 280 pixels
Height : 720 pixels
Display aspect ratio : 16:9
Frame rate mode : Constant
Frame rate : 25.000 FPS
Color space : YUV
Chroma subsampling : 4:2:0
Bit depth : 8 bits
Scan type : Progressive
Bits/(Pixel*Frame) : 0.056
Stream size : 8.30 MiB (89%)
Writing library : x264 core 142
Encoding settings : cabac=1 / ref=4 / deblock=1:0:0 / analyse=0x3:0x133 / me=hex / subme=7 / psy=1 / psy_rd=1.00:0.00 / mixed_ref=1 / me_range=16 / chroma_me=1 / trellis=2 / 8x8dct=1 / cqm=0 / deadzone=21,11 / fast_pskip=1 / chroma_qp_offset=-2 / threads=4 / lookahead_threads=1 / sliced_threads=0 / nr=0 / decimate=1 / interlaced=0 / bluray_compat=0 / constrained_intra=0 / bframes=6 / b_pyramid=1 / b_adapt=2 / b_bias=0 / direct=3 / weightb=1 / open_gop=0 / weightp=2 / keyint=100 / keyint_min=51 / scenecut=0 / intra_refresh=0 / rc_lookahead=50 / rc=2pass / mbtree=1 / bitrate=2569 / ratetol=1.0 / qcomp=0.60 / qpmin=0 / qpmax=69 / qpstep=4 / cplxblur=20.0 / qblur=0.5 / vbv_maxrate=3340 / vbv_bufsize=3854 / nal_hrd=none / filler=0 / ip_ratio=1.40 / aq=1:1.00
Language : English
Default : Yes
Forced : No
Audio
ID : 2
Format : AAC
Format/Info : Advanced Audio Codec
Format profile : LC
Codec ID : A_AAC
Duration : 54 s 80 ms
Bit rate : 161 kb/s
Channel(s) : 2 channels
Channel positions : Front: L R
Sampling rate : 48.0 kHz
Frame rate : 46.875 FPS (1024 spf)
Compression mode : Lossy
Stream size : 1.04 MiB (11%)
Language : English
Default : Yes
Forced : No
Внимание, это обновляемая раздача!!!
Всем скачавшим и поддерживающим раздачу - обновляйте скачанный релиз после каждого дополнения.
Вам нужно скачать обновленный торрент еще раз, вновь запустить его и сохранить обновленный релиз поверх старого, т.е. в ту же папку.
[www.cybertorrent.ru].t1249.torrent 
Торрент: Зарегистрирован [ 2018-02-16 03:41 ] · 1E1CBD021E0E21BE6450DA0509A871A99827F303

Скачать .torrent

Скачать

23 KB

Статус: проверено
Скачан: 0 раз
Размер: 1,55 GB
Профиль [ЛС]
Показать сообщения:    

Текущее время: 12-Дек 23:56

Часовой пояс: UTC ± 0



Вы не можете начинать темы
Вы не можете отвечать на сообщения
Вы не можете редактировать свои сообщения
Вы не можете удалять свои сообщения
Вы не можете голосовать в опросах
Вы не можете прикреплять файлы к сообщениям
Вы можете скачивать файлы
Torrents24.ru открытый BitTorrent Torrents24.pl открытый BitTorrent CyberTorrent.ru открытый BitTorrent BtList.ru рейтинг BitTorrent трекеров Яндекс.Метрика