BitTorrent клиенты



Багровые реки / Les Rivières Pourpres (Матье Кассовиц) [720p|DVD9] [2000, Триллер, криминал, детектив, BDRip]

Ответить на тему
 
Автор Сообщение

Вектор ®

Пол: Не указан

Стаж: 1 год

Сообщений: 4452

Создавать темы 05-Фев-2018 18:11

[Цитировать]

-Багровые реки / Les Rivières Pourpres-«Evil rises to new heights»-Год выпуска: 2000
Страна: Франция
Жанр: Триллер, криминал, детектив
Продолжительность: 01:45:05
Перевод: Профессиональный (полное дублирование) + Многоголосый
Русские субтитры: есть
Режиссер: Матье Кассовиц

В ролях: Жан Рено, Венсан Кассель, Надя Фарес, Доминик Санда, Карим Белхадра, Жан-Пьер Кассель, Дидье Фламан, Франсуа Леванталь, Филипп Наон
Описание:
В престижном колледже в Альпах совершено зверское убийство, которое расследует опытный комиссар полиции Пьер Ньеманс. Тем временем в другом местечке происходит еще одно, весьма странное преступление — кто-то раскапывает и оскверняет могилу 10-летней девочки.
Это дело ведет молодой детектив Макс Керкерьян. Кажется, между данными событиями нет связи. Но она существует! И когда оба полицейских обнаруживают ее, доселе виденные ими заурядные злодеяния постепенно меркнут по сравнению с тем сердцем тьмы, куда приведут их поиски правды. Смертельно опасной правды…-IMDB 6.7/10
-Качество: BDRip
Формат: MKV
Видео кодек: H.264
Аудио кодек: AC3
Видео: 1280x544 (2.35:1) at 24.000 fps (True24p), x264, 2pass, ~7330 Kbps avg (DON)
Аудио#1: Русский: AC3 2.0 384 Kbps [Дубляж]
Аудио#2: Русский: 48 kHz, AC3, 3/2 (L,C,R,l,r) + LFE ch, ~448 Kbps [Многоголосый - Видеосервис]
Аудио#3: French: 48 kHz, DTS-ES, 3/2 (L,C,R,l,Sc,r) + LFE ch, ~1536 Kbps
Субтитры: Русские, английские

Mediainfo

General
Unique ID : 218042961738358419378141690019609192380 (0xA4098C02C8ABB1809E3055F5368E27BC)
Complete name : F:\new2\Les.Rivieres.pourpres.2000.720p.BluRay.DTS-ES.x264.Rus.French.HDCLUB.mkv
Format : Matroska
Format version : Version 1
File size : 7.15 GiB
Duration : 1 h 45 min
Overall bit rate : 9 676 kb/s
Encoded date : UTC 2008-12-26 11:57:00
Writing application : mkvmerge v2.4.0 ('Fumbling Towards Ecstasy') built on Oct 11 2008 20:13:15
Writing library : libebml v0.7.7 + libmatroska v0.8.1
Video
ID : 1
Format : AVC
Format/Info : Advanced Video Codec
Format profile : High@L4.1
Format settings : CABAC / 6 Ref Frames
Format settings, CABAC : Yes
Format settings, RefFrames : 6 frames
Codec ID : V_MPEG4/ISO/AVC
Duration : 1 h 45 min
Bit rate : 7 330 kb/s
Width : 1 280 pixels
Height : 544 pixels
Display aspect ratio : 2.35:1
Frame rate mode : Constant
Frame rate : 24.000 FPS
Color space : YUV
Chroma subsampling : 4:2:0
Bit depth : 8 bits
Scan type : Progressive
Bits/(Pixel*Frame) : 0.439
Stream size : 5.28 GiB (74%)
Title : Les Rivières pourpres (2000)
Writing library : x264 core 65 r1024M 2652abe
Encoding settings : cabac=1 / ref=6 / deblock=1:-3:-3 / analyse=0x3:0x133 / me=umh / subme=9 / psy_rd=0.8:0.0 / mixed_ref=1 / me_range=32 / chroma_me=1 / trellis=0 / 8x8dct=1 / cqm=2 / deadzone=8,8 / chroma_qp_offset=-2 / threads=6 / nr=0 / decimate=1 / mbaff=0 / bframes=16 / b_pyramid=0 / b_adapt=1 / b_bias=0 / direct=1 / wpredb=1 / keyint=250 / keyint_min=25 / scenecut=40(pre) / rc=2pass / bitrate=7330 / ratetol=1.0 / qcomp=0.60 / qpmin=10 / qpmax=51 / qpstep=4 / cplxblur=20.0 / qblur=0.5 / ip_ratio=1.40 / pb_ratio=1.30 / aq=1:0.80
Language : French
Default : Yes
Forced : No
Audio #1
ID : 2
Format : AC-3
Format/Info : Audio Coding 3
Format settings, Endianness : Big
Codec ID : A_AC3
Duration : 1 h 45 min
Bit rate mode : Constant
Bit rate : 384 kb/s
Channel(s) : 6 channels
Channel positions : Front: L C R, Side: L R, LFE
Sampling rate : 48.0 kHz
Frame rate : 31.250 FPS (1536 SPF)
Bit depth : 16 bits
Compression mode : Lossy
Stream size : 291 MiB (4%)
Title : AC3 2.0 384 Kbps [Дубляж]
Language : Russian
Service kind : Complete Main
Default : No
Forced : No
Audio #2
ID : 3
Format : AC-3
Format/Info : Audio Coding 3
Format settings, Endianness : Big
Codec ID : A_AC3
Duration : 1 h 45 min
Bit rate mode : Constant
Bit rate : 448 kb/s
Channel(s) : 6 channels
Channel positions : Front: L C R, Side: L R, LFE
Sampling rate : 48.0 kHz
Frame rate : 31.250 FPS (1536 SPF)
Bit depth : 16 bits
Compression mode : Lossy
Stream size : 339 MiB (5%)
Title : AC3 5.1 448 Kbps [Многоголосый]
Language : Russian
Service kind : Complete Main
Default : Yes
Forced : No
Audio #3
ID : 4
Format : DTS
Format/Info : Digital Theater Systems
Format profile : ES Discrete / Core
Mode : 16
Format settings, Endianness : Big
Codec ID : A_DTS
Duration : 1 h 45 min
Bit rate mode : Constant
Bit rate : 1 509 kb/s
Channel(s) : 7 channels / 6 channels
Channel positions : Front: L C R, Side: L R, Back: C, LFE / Front: L C R, Side: L R, LFE
Sampling rate : 48.0 kHz
Frame rate : 93.750 FPS (512 SPF)
Bit depth : 24 bits
Compression mode : Lossy
Stream size : 1.12 GiB (16%)
Title : DTS-ES 5.1 1536kbps
Language : French
Default : No
Forced : No
Text #1
ID : 5
Format : UTF-8
Codec ID : S_TEXT/UTF8
Codec ID/Info : UTF-8 Plain Text
Language : Russian
Default : No
Forced : No
Text #2
ID : 6
Format : UTF-8
Codec ID : S_TEXT/UTF8
Codec ID/Info : UTF-8 Plain Text
Language : English
Default : No
Forced : No

Скриншоты

[Профиль] [ЛС]
Показать сообщения:    
Ответить на тему

Текущее время: 23-Фев 00:05

Часовой пояс: UTC + 3



Вы не можете начинать темы
Вы не можете отвечать на сообщения
Вы не можете редактировать свои сообщения
Вы не можете удалять свои сообщения
Вы не можете голосовать в опросах
Вы не можете прикреплять файлы к сообщениям
Вы можете скачивать файлы