BitTorrent клиенты



Козырные тузы / Smokin' Aces (Джо Карнахан / Joe Carnahan) [2006, Великобритания, Франция, США, боевик, триллер, драма, криминал, детектив, WEB-DLRip] [Open Matte] Dub + 2x AVO

Ответить на тему
 
Автор Сообщение

Angel ®

Пол: Не указан

Стаж: 1 год

Сообщений: 1346

Создавать темы 05-Фев-2018 18:17

[Цитировать]

Козырные тузы / Smokin' Aces
Год выпуска: 2006
Страна: Великобритания, Франция, США
Жанр: боевик, триллер, драма, криминал
Продолжительность: 01:49:06-Перевод 1: Профессиональный (полное дублирование)
Перевод 2: Авторский (одноголосый закадровый) | А. Гаврилов
Перевод 3: Авторский (одноголосый закадровый) | Ю. Немахов
Субтитры: нет
Оригинальная аудиодорожка: нет-Режиссер: Джо Карнахан / Joe Carnahan-В ролях: Райан Рейнольдс, Энди Гарсиа, Джереми Пивен, Рэй Лиотта, Алишиа Кис, Тараджи П. Хенсон, Коммон, Крис Пайн, Джоэл Эдгертон, Нестор Карбонелл-Описание:
Гангстер Бадди Израэл согласился сотрудничать с ФБР и дать показания против своих мафиозных дружков. За его жизнь главой мафии назначено крупное вознаграждение в миллион долларов, и Бадди грозит реальная опасность распрощаться с жизнью еще до начала суда.
Охрана Израэла поручена двум агентам ФБР — Месснеру и Карратерсу, которым предстоит нелегкая задача защищать важного свидетеля от наемных убийц. Но работа агентов усложняется тем, что сам Бадди не привык сидеть в четырех стенах и упорно стремится появляться в людных местах и привлекать всеобщее внимание.-Тип релиза: WEB-DLRip
Контейнер: AVI
Видео: 720x400 (1.80:1), 23.976 fps, XviD build 73 ~2285 kbps avg, 0.33 bit/pixel
Аудио 1: 48 kHz, AC3 Dolby Digital, 2/0 (L,R) ch, ~192 kbps | Dub
Аудио 2: 48 kHz, AC3 Dolby Digital, 2/0 (L,R) ch, ~192 kbps | А. Гаврилов
Аудио 3: 48 kHz, AC3 Dolby Digital, 2/0 (L,R) ch, ~192 kbps | Ю. Немахов-Сэмпл-

BDRip vs Open Matte



MediaInfo

Код:Format : AVI
Format/Info : Audio Video Interleave
Format profile : OpenDML
File size : 2.19 GiB
Duration : 1 h 49 min
Overall bit rate : 2 868 kb/s
Writing application : VirtualDubMod 1.5.10.2 (build 2542/release)
Writing library : VirtualDubMod build 2542/release
Video
ID : 0
Format : MPEG-4 Visual
Format profile : Advanced Simple@L5
Format settings : BVOP1 / Custom Matrix
Format settings, BVOP : 1
Format settings, QPel : No
Format settings, GMC : No warppoints
Format settings, Matrix : Custom
Codec ID : XVID
Codec ID/Hint : XviD
Duration : 1 h 49 min
Bit rate : 2 268 kb/s
Width : 720 pixels
Height : 400 pixels
Display aspect ratio : 16:9
Frame rate : 23.976 (24000/1001) FPS
Color space : YUV
Chroma subsampling : 4:2:0
Bit depth : 8 bits
Scan type : Progressive
Compression mode : Lossy
Bits/(Pixel*Frame) : 0.328
Stream size : 1.73 GiB (79%)
Writing library : XviD 73
Audio #1
ID : 1
Format : AC-3
Format/Info : Audio Coding 3
Codec ID : 2000
Duration : 1 h 49 min
Bit rate mode : Constant
Bit rate : 192 kb/s
Channel(s) : 2 channels
Channel positions : Front: L R
Sampling rate : 48.0 kHz
Frame rate : 31.250 FPS (1536 SPF)
Bit depth : 16 bits
Compression mode : Lossy
Stream size : 150 MiB (7%)
Alignment : Split accross interleaves
Interleave, duration : 42 ms (1.00 video frame)
Interleave, preload duratio : 500 ms
Service kind : Complete Main
Audio #2
ID : 2
Format : AC-3
Format/Info : Audio Coding 3
Codec ID : 2000
Duration : 1 h 49 min
Bit rate mode : Constant
Bit rate : 192 kb/s
Channel(s) : 2 channels
Channel positions : Front: L R
Sampling rate : 48.0 kHz
Frame rate : 31.250 FPS (1536 SPF)
Bit depth : 16 bits
Compression mode : Lossy
Stream size : 150 MiB (7%)
Alignment : Split accross interleaves
Interleave, duration : 42 ms (1.00 video frame)
Interleave, preload duratio : 500 ms
Service kind : Complete Main
Audio #3
ID : 3
Format : AC-3
Format/Info : Audio Coding 3
Codec ID : 2000
Duration : 1 h 49 min
Bit rate mode : Constant
Bit rate : 192 kb/s
Channel(s) : 2 channels
Channel positions : Front: L R
Sampling rate : 48.0 kHz
Frame rate : 31.250 FPS (1536 SPF)
Bit depth : 16 bits
Compression mode : Lossy
Stream size : 150 MiB (7%)
Alignment : Split accross interleaves
Interleave, duration : 42 ms (1.00 video frame)
Interleave, preload duratio : 500 ms
Service kind : Complete Main

Скриншоты

[Профиль] [ЛС]
Показать сообщения:    
Ответить на тему

Текущее время: 23-Фев 00:29

Часовой пояс: UTC + 3



Вы не можете начинать темы
Вы не можете отвечать на сообщения
Вы не можете редактировать свои сообщения
Вы не можете удалять свои сообщения
Вы не можете голосовать в опросах
Вы не можете прикреплять файлы к сообщениям
Вы можете скачивать файлы