BitTorrent клиенты



Солт / Salt (Филлип Нойс / Phillip Noyce) [2010, США, боевик, криминал, детектив, BDRip] [Режиссерская версия / Director's Cut] AVO (Юрий Живов)

Ответить на тему
 
Автор Сообщение

Angel ®

Пол: Не указан

Стаж: 1 год

Сообщений: 1346

Создавать темы 05-Фев-2018 18:17

[Цитировать]

Солт / Режиссерская версия / Salt / Director's Cut
Страна: США
Жанр: боевик, криминал, детектив
Год выпуска: 2010
Продолжительность: 01:44:04
Перевод: Авторский (одноголосый закадровый) Юрий Живов
Субтитры: нет
Режиссер: Филлип Нойс / Phillip Noyce
В ролях: Анджелина Джоли, Лив Шрайбер, Чиветель Эджиофор, Даниэль Ольбрыхский, Аугуст Диль, Дэниэл Пирс, Хант Блок, Андре Брогер, Олек Крупа
Описание: Эвелин Солт – один из самых опытных оперативников ЦРУ, с лёгкостью выполняющая сложнейшие задания. Именно ей достаётся честь допросить русского перебежчика Орлова. Он утверждает, что ещё в СССР разработали глобальную программу внедрения во все американские спецслужбы советских агентов. В ближайшее время один из шпионов должен ликвидировать президента России, а имя крота – Эвелин Солт. Героиня вынуждена сбежать, чтобы начать собственное расследование. Теперь её долг – восстановить своё доброе имя и разоблачить тех, кто на самом деле задумал теракт....
Сэмпл: http://multi-up.com/1182817
Качество видео: BDRip (Исходник Blu-Ray disc 1080p)
Формат видео: AVI
Видео: XviD 73, 720x304, (2,35:1), 23,976 fps, 1560 Кбит/с, 8 бит, 0.29 bit/pixel
Аудио: Русский (АС3, 6 ch (Front: L C R, Side: L R, LFE), 48,0 KHz, 448 Kbps)

MediaInfo

Общее
Полное имя : H:\Фильмы на трекер\Солт (боевик, криминал, детектив 2010 год).avi
Формат : AVI
Формат/Информация : Audio Video Interleave
Размер файла : 1,47 Гбайт
Продолжительность : 1 ч. 44 м.
Общий поток : 2017 Кбит/сек
Программа кодирования : VirtualDubMod 1.5.10.2 (build 2540/release)
Библиотека кодирования : VirtualDubMod build 2540/release
Видео
Идентификатор : 0
Формат : MPEG-4 Visual
Профиль формата : Advanced Simple@L5
Параметр BVOP формата : 2
Параметр QPel формата : Нет
Параметр GMC формата : Без точки перехода
Параметр матрицы формата : Выборочная
Идентификатор кодека : XVID
Идентификатор кодека/Подсказка : XviD
Продолжительность : 1 ч. 44 м.
Битрейт : 1560 Кбит/сек
Ширина : 720 пикселей
Высота : 304 пикселя
Соотношение сторон : 2,35:1
Частота кадров : 23,976 (23976/1000) кадра/сек
Цветовое пространство : YUV
Субдискретизация насыщенности : 4:2:0
Битовая глубина : 8 бит
Тип развёртки : Прогрессивная
Метод сжатия : С потерями
Бит/(Пиксели*Кадры) : 0.297
Размер потока : 1,13 Гбайт (77%)
Библиотека кодирования : XviD 73
Аудио
Идентификатор : 1
Формат : AC-3
Формат/Информация : Audio Coding 3
Расширение режима : CM (complete main)
Параметр Endianness формата : Big
Идентификатор кодека : 2000
Продолжительность : 1 ч. 44 м.
Вид битрейта : Постоянный
Битрейт : 448 Кбит/сек
Каналы : 6 каналов
Расположение каналов : Front: L C R, Side: L R, LFE
Частота : 48,0 КГц
Частота кадров : 31,250 кадров/сек (1536 spf)
Метод сжатия : С потерями
Размер потока : 333 Мбайт (22%)
Выравнивание : Разделение по промежуткам
Продолжительность промежутка : 42 мс. (1,00 видеокадр)
Время предзагрузки промежутка : 500 мс.

Скриншот c названием фильма

Скриншоты

[Профиль] [ЛС]
Показать сообщения:    
Ответить на тему

Текущее время: 20-Фев 06:56

Часовой пояс: UTC + 3



Вы не можете начинать темы
Вы не можете отвечать на сообщения
Вы не можете редактировать свои сообщения
Вы не можете удалять свои сообщения
Вы не можете голосовать в опросах
Вы не можете прикреплять файлы к сообщениям
Вы можете скачивать файлы