BitTorrent клиенты



Отряд ТККГ и загадочная интеллигентная машина / Отряд ТККГ и загадочная разумная машина / TKKG und die ratselhafte Mind-Machine (Томи Виганд / Tomy Wigand) [2006, Германия, фантастика, приключения, семейный, HDTVRip-AVC] VO (allecs2010)

Ответить на тему
 
Автор Сообщение

Angel ®

Пол: Не указан

Стаж: 1 год

Сообщений: 1346

Создавать темы 05-Фев-2018 18:17

[Цитировать]

Отряд ТККГ и загадочная интеллигентная машина / Отряд ТККГ и загадочная разумная машина / TKKG / TKKG und die ratselhafte Mind-Machine / TKKG - Das Geheimnis um die ratselhafte Mind-Machine
Страна: Германия
Жанр: фантастика, приключения, семейный
Год выпуска: 2006
Продолжительность: 01:47:22
-
Перевод: Одноголосый закадровый allecs2010 по субтитрам Ifirf86
Субтитры: нет
-
Режиссер: Томи Виганд / Tomy Wigand
В ролях: Яннис Нивёнер, Йонатан Думке, Лукас Эйхаммер, Свеа Бейн, Хауке Дикамп, Юрген Фогель, Ульрих Нётен, Жанетт Хайн, Роберт Долле, Анна Хаусбург
-
Описание: Старшеклассник Кевин горд своим изобретением — «Интеллект-машиной» и хочет представить ее однокашникам и преподавателям. Но презентация не получается, его осмеивают, и он убегает из аудитории. Ко всем неприятностям добавляется и то, что его подруга Надин исчезает. Тут и появляется команда ТККГ! Это 12-летние Тим, Клёцка, Карл и Габи, которые берут поиск Надин в свои руки.
-
Доп. информация: Видео: http://rutracker.org/forum/viewtopic.php?t=5410644
-
Сэмпл: http://sendfile.su/1388011
-
Качество видео: HDTVRip-AVC
Формат видео: MKV
Видео: AVC, 1854 Кбит/сек, 1264 x 688 (1.837), 25.000 fps
Аудио: 48 kHz, AC3 Dolby Digital, 2/0 (L,R) ch, ~192 kbps

MediaInfo

General
Unique ID : 215608255441242878277896340740109054921 (0xA234A3B8F7D0F23FB0268A40B5DD33C9)
Complete name : C:\Users\ALEX\Desktop\Фильмы\TKKG und die ratselhafte Mind-Machine.2006.RUS.HDTVRip-AVC.x264.AC3.mkv
Format : Matroska
Format version : Version 4 / Version 2
File size : 1.54 GiB
Duration : 1 h 47 min
Overall bit rate : 2 047 kb/s
Movie name : TKKG und die ratselhafte Mind-Machine
Encoded date : UTC 2017-12-29 20:42:45
Writing application : mkvmerge v8.5.2 ('Crosses') 64bit
Writing library : libebml v1.3.3 + libmatroska v1.4.4
Video
ID : 1
Format : AVC
Format/Info : Advanced Video Codec
Format profile : High@L4
Format settings : CABAC / 5 Ref Frames
Format settings, CABAC : Yes
Format settings, RefFrames : 5 frames
Codec ID : V_MPEG4/ISO/AVC
Duration : 1 h 47 min
Bit rate : 1 854 kb/s
Width : 1 264 pixels
Height : 688 pixels
Display aspect ratio : 1.85:1
Frame rate mode : Constant
Frame rate : 25.000 FPS
Color space : YUV
Chroma subsampling : 4:2:0
Bit depth : 8 bits
Scan type : Progressive
Bits/(Pixel*Frame) : 0.085
Stream size : 1.39 GiB (91%)
Title : TKKG und die ratselhafte Mind-Machine
Writing library : x264 core 119 r2106 07efeb4
Encoding settings : cabac=1 / ref=5 / deblock=1:-1:-1 / analyse=0x3:0x113 / me=umh / subme=8 / psy=1 / psy_rd=1.00:0.15 / mixed_ref=1 / me_range=16 / chroma_me=1 / trellis=1 / 8x8dct=1 / cqm=0 / deadzone=21,11 / fast_pskip=1 / chroma_qp_offset=-3 / threads=6 / sliced_threads=0 / nr=0 / decimate=1 / interlaced=0 / bluray_compat=0 / constrained_intra=0 / bframes=3 / b_pyramid=2 / b_adapt=2 / b_bias=0 / direct=3 / weightb=1 / open_gop=0 / weightp=2 / keyint=100 / keyint_min=10 / scenecut=40 / intra_refresh=0 / rc_lookahead=50 / rc=2pass / mbtree=1 / bitrate=1854 / ratetol=1.0 / qcomp=0.60 / qpmin=0 / qpmax=69 / qpstep=4 / cplxblur=20.0 / qblur=0.5 / vbv_maxrate=20000 / vbv_bufsize=25000 / nal_hrd=none / ip_ratio=1.40 / aq=1:1.00
Language : German
Default : No
Forced : No
Audio
ID : 2
Format : AC-3
Format/Info : Audio Coding 3
Format settings, Endianness : Big
Codec ID : A_AC3
Duration : 1 h 47 min
Bit rate mode : Constant
Bit rate : 192 kb/s
Channel(s) : 2 channels
Channel positions : Front: L R
Sampling rate : 48.0 kHz
Frame rate : 31.250 FPS (1536 SPF)
Bit depth : 16 bits
Compression mode : Lossy
Stream size : 147 MiB (9%)
Title : VO (allecs2010)
Language : Russian
Service kind : Complete Main
Default : No
Forced : No

Скриншоты

[Профиль] [ЛС]
Показать сообщения:    
Ответить на тему

Текущее время: 20-Фев 06:52

Часовой пояс: UTC + 3



Вы не можете начинать темы
Вы не можете отвечать на сообщения
Вы не можете редактировать свои сообщения
Вы не можете удалять свои сообщения
Вы не можете голосовать в опросах
Вы не можете прикреплять файлы к сообщениям
Вы можете скачивать файлы