BitTorrent клиенты



Перелом / Fracture (Грегори Хоблит / Gregory Hoblit) [2007, США, Германия, триллер, драма, криминал, детектив, WEB-DLRip] [Open Matte] Dub

Ответить на тему
 
Автор Сообщение

Angel ®

Пол: Не указан

Стаж: 1 год

Сообщений: 1346

Создавать темы 05-Фев-2018 18:17

[Цитировать]

Перелом / Fracture / Open Matte- Год выпуска: 2007
Страна: США, Германия / New Line Cinema
Жанр: триллер, драма, криминал, детектив
Продолжительность: 01:53:32
Перевод: Профессиональный (дублированный) Universal Pictures Rus
Субтитры: нет-Режиссер: Грегори Хоблит / Gregory Hoblit-В ролях: Энтони Хопкинс, Райан Гослинг, Дэвид Стрэтэйрн, Розамунд Пайк, Эмбет Дэвидц, Билли Бёрк, Клифф Кёртис, Фиона Шоу, Боб Гантон, Джош Стэмберг.-Описание: Тед Кроуфорд жестоким образом убивает свою жену и спокойно ждет, когда полиция его арестует. Имея подписанное признание в руках, Уилли Бичум верит, что суд признает подсудимого виновным. Так и случилось бы, но дело приняло новый оборот. Теперь Бичум должен бороться с хитроумным Кроуфордом в отчаянных поисках истины. Кроме того, ему необходимо найти ответ на главный вопрос: как Кроуфорду удается уйти от правосудия?-Рейтинг
kinopoisk.ru 7.676 (59 527)
imdb.com 7.20 (154 370)
-Качество видео: WEB-DLRip (исходник: WEB-DL / 1080p)
Формат видео: AVI | Sample
Видео: 704x400 (1.76:1), 23.976 fps, XviD build 73 ~1390 kbps avg, 0.21 bit/pixel
Аудио: 48 kHz, AC3 Dolby Digital, 3/2 (L,C,R,l,r) + LFE ch, ~448.00 kbps avg | RUS

Инфо

Формат : AVI
Формат/Информация : Audio Video Interleave
Размер файла : 1,46 Гбайт
Продолжительность : 1 ч. 53 м.
Общий поток : 1847 Кбит/сек
Название фильма : Перелом / Fracture (2007) Open Matte
Программа кодирования : VirtualDubMod 1.5.10.2 (build 2540/release)
Библиотека кодирования : VirtualDubMod build 2540/release
Примечание : WEB-DLRip by Seven
Видео
Идентификатор : 0
Формат : MPEG-4 Visual
Профиль формата : Advanced Simple@L5
Настройки формата : BVOP1 / Custom Matrix
Параметр BVOP формата : 1
Параметр QPel формата : Нет
Параметр GMC формата : Без точки перехода
Параметр матрицы формата : Выборочная
Идентификатор кодека : XVID
Идентификатор кодека/Подсказка : XviD
Продолжительность : 1 ч. 53 м.
Битрейт : 1390 Кбит/сек
Ширина : 704 пикселя
Высота : 400 пикселей
Соотношение сторон : 16:9
Частота кадров : 23,976 (24000/1001) кадра/сек
Цветовое пространство : YUV
Субдискретизация насыщенности : 4:2:0
Битовая глубина : 8 бит
Тип развёртки : Прогрессивная
Метод сжатия : С потерями
Бит/(Пиксели*Кадры) : 0.206
Размер потока : 1,10 Гбайт (75%)
Библиотека кодирования : XviD 73
Аудио
Идентификатор : 1
Формат : AC-3
Формат/Информация : Audio Coding 3
Параметр Endianness формата : Big
Идентификатор кодека : 2000
Продолжительность : 1 ч. 53 м.
Вид битрейта : Постоянный
Битрейт : 448 Кбит/сек
Каналы : 6 каналов
Расположение каналов : Front: L C R, Side: L R, LFE
Частота : 48,0 КГц
Частота кадров : 31,250 кадров/сек (1536 SPF)
Битовая глубина : 16 бит
Метод сжатия : С потерями
Размер потока : 364 Мбайт (24%)
Выравнивание : Разделение по промежуткам
Продолжительность промежутка : 42 мс. (1,00 видеокадр)
Время предзагрузки промежутка : 500 мс.
ServiceKind/String : Complete Main

Сравнение

Blu-ray vs WEB-DL

Скриншоты

[Профиль] [ЛС]
Показать сообщения:    
Ответить на тему

Текущее время: 21-Фев 23:36

Часовой пояс: UTC + 3



Вы не можете начинать темы
Вы не можете отвечать на сообщения
Вы не можете редактировать свои сообщения
Вы не можете удалять свои сообщения
Вы не можете голосовать в опросах
Вы не можете прикреплять файлы к сообщениям
Вы можете скачивать файлы