BitTorrent клиенты



Начинающие / Beginners (Майк Миллс / Mike Mills) [2010, США, драма, мелодрама, комедия, BDRip-AVC] Dub + Original Eng + Sub (Rus, Eng)

Ответить на тему
 
Автор Сообщение

Angel ®

Пол: Не указан

Стаж: 1 год

Сообщений: 1346

Создавать темы 05-Фев-2018 18:17

[Цитировать]

Начинающие / Beginners- Страна: США
Жанр: драма, мелодрама, комедия
Год выпуска: 2010
Продолжительность: 01:44:07
Перевод: Профессиональный (дублированный)
Субтитры: русские, английские
Оригинальная аудиодорожка: английский
Режиссер: Майк Миллс / Mike Mills
В ролях: Юэн МакГрегор, Кристофер Пламмер, Мелани Лоран, Горан Вишнич, Кай Леннокс, Мэри Пейдж Келлер, Кигэн Боос, Чина Шаверс, Мелисса Тэнг, Аманда Пэйтон
Описание: После смерти матери Оливер узнает от отца неожиданную новость. Оказывается, тот всю жизнь был геем. Он осознал это еще в подростковом возрасте, но из-за предрассудков времени был вынужден жениться. И теперь он планирует измениться и начать начать жизнь заново. Новая одежда, новые друзья, новые увлечения, новая любовь.
Сэмпл: http://sendfile.su/1385231

Качество видео: BDRip-AVC (BEGINNERS_2010_BD-REMUX)
Формат видео: MKV
Видео: x264, 1152x624 (1.85:1) 23,976 fps, ~2168 kbps, 0,126 bit/pixel
Аудио 1: 48 kHz, AC3 Dolby Digital, 3/2 (L,C,R,l,r) + LFE ch, ~384 kbps | Дубляж
Аудио 2: 48 kHz, AC3 Dolby Digital, 3/2 (L,C,R,l,r) + LFE ch, ~448 kbps | Английский
Формат субтитров: softsub (SRT)

MediaInfo

General
Unique ID : 205389225517494632621379187240571735211 (0x9A8486A5D479271AA088958568378CAB)
Format : Matroska
Format version : Version 4 / Version 2
File size : 2.18 GiB
Duration : 1h 44mn
Overall bit rate : 2 994 Kbps
Encoded date : UTC 2017-04-27 16:50:35
Writing application : mkvmerge v11.0.0 ('Alive') 64bit
Writing library : libebml v1.3.4 + libmatroska v1.4.5
Video #1
ID : 1
Format : AVC
Format/Info : Advanced Video Codec
Format profile : High@L4.1
Format settings, CABAC : Yes
Format settings, ReFrames : 9 frames
Codec ID : V_MPEG4/ISO/AVC
Duration : 1h 44mn
Bit rate : 2 168 Kbps
Width : 1 152 pixels
Height : 624 pixels
Display aspect ratio : 1.85:1
Frame rate mode : Constant
Frame rate : 23.976 (24000/1001) fps
Color space : YUV
Chroma subsampling : 4:2:0
Bit depth : 8 bits
Scan type : Progressive
Bits/(Pixel*Frame) : 0.126
Stream size : 1.57 GiB (72%)
Writing library : x264 core 148 r2638 7599210
Encoding settings : cabac=1 / ref=9 / deblock=1:-3:-2 / analyse=0x3:0x133 / me=umh / subme=10 / psy=1 / psy_rd=1.00:0.00 / mixed_ref=1 / me_range=32 / chroma_me=1 / trellis=2 / 8x8dct=1 / cqm=0 / deadzone=21,11 / fast_pskip=0 / chroma_qp_offset=-2 / threads=6 / lookahead_threads=1 / sliced_threads=0 / nr=0 / decimate=1 / interlaced=0 / bluray_compat=0 / constrained_intra=0 / bframes=10 / b_pyramid=2 / b_adapt=2 / b_bias=0 / direct=1 / weightb=1 / open_gop=0 / weightp=2 / keyint=250 / keyint_min=23 / scenecut=40 / intra_refresh=0 / rc=2pass / mbtree=0 / bitrate=2168 / ratetol=1.0 / qcomp=0.65 / qpmin=0 / qpmax=69 / qpstep=4 / cplxblur=20.0 / qblur=0.5 / ip_ratio=1.40 / pb_ratio=1.30 / aq=3:0.90
Language : English
Default : Yes
Forced : No
Audio #2
ID : 2
Format : AC-3
Format/Info : Audio Coding 3
Mode extension : CM (complete main)
Format settings, Endianness : Big
Codec ID : A_AC3
Duration : 1h 44mn
Bit rate mode : Constant
Bit rate : 384 Kbps
Channel(s) : 6 channels
Channel positions : Front: L C R, Side: L R, LFE
Sampling rate : 48.0 KHz
Frame rate : 31.250 fps (1536 spf)
Compression mode : Lossy
Stream size : 286 MiB (13%)
Language : Russian
Default : Yes
Forced : No
Audio #3
ID : 3
Format : AC-3
Format/Info : Audio Coding 3
Mode extension : CM (complete main)
Format settings, Endianness : Big
Codec ID : A_AC3
Duration : 1h 44mn
Bit rate mode : Constant
Bit rate : 448 Kbps
Channel(s) : 6 channels
Channel positions : Front: L C R, Side: L R, LFE
Sampling rate : 48.0 KHz
Frame rate : 31.250 fps (1536 spf)
Compression mode : Lossy
Stream size : 334 MiB (15%)
Language : English
Default : No
Forced : No
Text #4
ID : 4
Format : UTF-8
Codec ID : S_TEXT/UTF8
Codec ID/Info : UTF-8 Plain Text
Duration : 1h 18mn
Bit rate : 1 bps
Count of elements : 14
Stream size : 826 Bytes (0%)
Title : Forced
Language : Russian
Default : Yes
Forced : No
Text #5
ID : 5
Format : UTF-8
Codec ID : S_TEXT/UTF8
Codec ID/Info : UTF-8 Plain Text
Duration : 1h 35mn
Bit rate : 76 bps
Count of elements : 1133
Stream size : 53.5 KiB (0%)
Language : Russian
Default : No
Forced : No
Text #6
ID : 6
Format : UTF-8
Codec ID : S_TEXT/UTF8
Codec ID/Info : UTF-8 Plain Text
Duration : 1h 35mn
Bit rate : 44 bps
Count of elements : 1122
Stream size : 30.9 KiB (0%)
Language : English
Default : No
Forced : No

лог

raw [info]: 1152x624p 1:1 @ 24000/1001 fps (cfr)
x264 [info]: using SAR=1/1
x264 [info]: using cpu capabilities: MMX2 SSE2Fast SSSE3 SSE4.2 AVX XOP FMA4 FMA3 LZCNT BMI1
x264 [info]: profile High, level 4.1
x264 [info]: frame I:1015 Avg QP:10.92 size:104764
x264 [info]: frame P:30154 Avg QP:13.63 size: 25268
x264 [info]: frame B:118614 Avg QP:15.93 size: 6900
x264 [info]: consecutive B-frames: 1.4% 2.6% 7.7% 18.7% 13.4% 32.4% 5.8% 7.4% 2.5% 5.6% 2.5%
x264 [info]: mb I I16..4: 11.5% 73.0% 15.6%
x264 [info]: mb P I16..4: 1.1% 6.8% 1.0% P16..4: 37.0% 24.3% 17.1% 0.5% 0.2% skip:12.1%
x264 [info]: mb B I16..4: 0.0% 0.3% 0.0% B16..8: 36.7% 12.9% 3.0% direct: 3.1% skip:44.0% L0:44.9% L1:45.9% BI: 9.3%
x264 [info]: 8x8 transform intra:76.3% inter:54.8%
x264 [info]: coded y,uvDC,uvAC intra: 84.6% 78.3% 60.3% inter: 15.5% 9.4% 2.4%
x264 [info]: i16 v,h,dc,p: 50% 7% 6% 37%
x264 [info]: i8 v,h,dc,ddl,ddr,vr,hd,vl,hu: 14% 9% 8% 9% 12% 13% 11% 12% 11%
x264 [info]: i4 v,h,dc,ddl,ddr,vr,hd,vl,hu: 12% 7% 4% 11% 16% 15% 13% 11% 11%
x264 [info]: i8c dc,h,v,p: 44% 22% 20% 14%
x264 [info]: Weighted P-Frames: Y:4.7% UV:2.4%
x264 [info]: ref P L0: 47.1% 7.0% 18.6% 7.4% 5.9% 4.6% 4.4% 2.3% 2.3% 0.3% 0.0%
x264 [info]: ref B L0: 68.0% 13.8% 7.3% 3.8% 2.8% 2.5% 1.4% 0.4%
x264 [info]: ref B L1: 90.7% 9.3%
x264 [info]: kb/s:2159.98
x264 [total]: encoded 149783 frames, 7.12 fps, 2159.98 kb/s

Скриншоты


[Профиль] [ЛС]
Показать сообщения:    
Ответить на тему

Текущее время: 23-Фев 00:01

Часовой пояс: UTC + 3



Вы не можете начинать темы
Вы не можете отвечать на сообщения
Вы не можете редактировать свои сообщения
Вы не можете удалять свои сообщения
Вы не можете голосовать в опросах
Вы не можете прикреплять файлы к сообщениям
Вы можете скачивать файлы