BitTorrent клиенты



Солдат-якудза / Heitai yakuza (Ясудзо Масумура / Yasuzô Masumura) [1965, Япония, военный, драма, WEB-DL 1080p] VO (В.Рутилов) + Sub Rus

Ответить на тему
 
Автор Сообщение

Angel ®

Пол: Не указан

Стаж: 1 год

Сообщений: 1346

Создавать темы 05-Фев-2018 18:17

[Цитировать]

Солдат-якудза / Heitai yakuza
Страна: Япония
Жанр: военный, драма
Год выпуска: 1965
Продолжительность: 01:42:00
Перевод: Одноголосый закадровый В.Рутилов
Субтитры: русские
Оригинальная аудиодорожка: японский
Режиссер: Ясудзо Масумура / Yasuzô Masumura
В ролях: Синтаро Кацу, Такахиро Тамура, Эйко Таки, Кэйко Авадзи, Микио Нарита, Ютака Накамура, Кю Садзанка, Асао Утида
Описание: По книге Ёритика Аримы, и первый в серии из 9 фильмов, Хейтай Якудза сочетает в себе элементы типичной военной комедии, такие как например полномасштабные потасовки, что и сделало его в своё время настоящим хитом. Но авторы также подвергают критике Императорскую армию времён войны, особенно тиранию сильных над слабыми и жестокие наказания за любое отклонение от нормы (и даже за отсутствие таковых). Их существование сводится к социал-дарвинизму, а внешний мир за пределами лагеря практически не существует. Замкнутое пространство повествования создаёт эффект увеличительного стекла. В центре фильма Арита, интеллектуал, который выражает свою ненависть к армии, однако ни он, ни остальные не подвергают сомнению свой долг отправиться в Манчжурию. Там он совершает попытку дезертирства, присоединившись к бывшему гангстеру и похитив поезд. Фильмы серии изобилуют сценами драк, изнасилований, пыток и унижений всех видов, а так же суровым армейским юмором. Американский киновед Дональд Ричи специализирующийся на японском кинематографе назвал Солдат-якудза "лучшим фильмом Масумуры" и сказал, что "никогда ещё японский юмор не был чернее".
Доп. информация: Исходник от alinto, tudakuda. За появление релиза спасибо alinto, bvedargh, killer snowman, Ryutaro, idalgo, yaei, максим1963, bagua. За работу со звуком спасибо Нордер.
Релиз:
Сэмпл: http://sendfile.su/1384845

Тип релиза: WEB-DL 1080p
Контейнер: MKV
Видео: MPEG-4 AVC, 1920x1080 at 23.976 fps, ~9069 Kbps avg
Аудио 1: Russian (Dolby AC3, 2 ch, 224 kbps)
Аудио 2: Japanese (Dolby EAC3, 2 ch, 224 kbps)

MediaInfo

Format : Matroska
Format version : Version 4 / Version 2
File size : 6.80 GiB
Duration : 1 h 42 min
Overall bit rate mode : Variable
Overall bit rate : 9 520 kb/s
Encoded date : UTC 2017-12-15 14:56:21
Writing application : mkvmerge v10.0.0 ('To Drown In You') 64bit
Writing library : libebml v1.3.4 + libmatroska v1.4.5
Video
ID : 1
Format : AVC
Format/Info : Advanced Video Codec
Format profile : High@L4
Format settings : CABAC / 4 Ref Frames
Format settings, CABAC : Yes
Format settings, RefFrames : 4 frames
Codec ID : V_MPEG4/ISO/AVC
Duration : 1 h 42 min
Bit rate mode : Variable
Bit rate : 9 069 kb/s
Maximum bit rate : 15.0 Mb/s
Width : 1 920 pixels
Height : 1 080 pixels
Display aspect ratio : 16:9
Frame rate mode : Constant
Frame rate : 23.976 (24000/1001) FPS
Color space : YUV
Chroma subsampling : 4:2:0
Bit depth : 8 bits
Scan type : Progressive
Bits/(Pixel*Frame) : 0.182
Stream size : 6.48 GiB (95%)
Writing library : x264 core 148 r2623 d5b2374
Encoding settings : cabac=1 / ref=4 / deblock=1:-1:-1 / analyse=0x3:0x133 / me=umh / subme=9 / psy=1 / psy_rd=1.00:0.15 / mixed_ref=1 / me_range=24 / chroma_me=1 / trellis=2 / 8x8dct=1 / cqm=0 / deadzone=21,11 / fast_pskip=1 / chroma_qp_offset=-3 / threads=34 / lookahead_threads=5 / sliced_threads=0 / nr=150 / decimate=1 / interlaced=0 / bluray_compat=0 / constrained_intra=0 / bframes=8 / b_pyramid=2 / b_adapt=2 / b_bias=0 / direct=3 / weightb=1 / open_gop=0 / weightp=2 / keyint=120 / keyint_min=61 / scenecut=0 / intra_refresh=0 / rc_lookahead=120 / rc=crf / mbtree=1 / crf=18.0 / qcomp=0.60 / qpmin=0 / qpmax=69 / qpstep=4 / vbv_maxrate=15000 / vbv_bufsize=31250 / crf_max=0.0 / nal_hrd=vbr / filler=0 / ip_ratio=1.40 / aq=3:1.00
Language : Japanese
Default : Yes
Forced : No
Color range : Limited
Color primaries : BT.709
Transfer characteristics : BT.709
Matrix coefficients : BT.709
Audio #1
ID : 2
Format : AC-3
Format/Info : Audio Coding 3
Codec ID : A_AC3
Duration : 1 h 42 min
Bit rate mode : Constant
Bit rate : 224 kb/s
Channel(s) : 2 channels
Channel positions : Front: L R
Sampling rate : 48.0 kHz
Frame rate : 31.250 FPS (1536 SPF)
Bit depth : 16 bits
Compression mode : Lossy
Stream size : 164 MiB (2%)
Language : Russian
Service kind : Complete Main
Default : Yes
Forced : No
Audio #2
ID : 3
Format : E-AC-3
Format/Info : Enhanced Audio Coding 3
Codec ID : A_EAC3
Duration : 1 h 42 min
Bit rate mode : Constant
Bit rate : 224 kb/s
Channel(s) : 2 channels
Channel positions : Front: L R
Sampling rate : 48.0 kHz
Frame rate : 187.500 FPS (256 SPF)
Compression mode : Lossy
Stream size : 164 MiB (2%)
Language : Japanese
Service kind : Complete Main
Default : No
Forced : No
Text #1
ID : 4
Format : UTF-8
Codec ID : S_TEXT/UTF8
Codec ID/Info : UTF-8 Plain Text
Duration : 1 h 41 min
Bit rate : 97 b/s
Count of elements : 1089
Stream size : 72.6 KiB (0%)
Language : Russian
Default : No
Forced : No
Text #2
ID : 5
Format : UTF-8
Codec ID : S_TEXT/UTF8
Codec ID/Info : UTF-8 Plain Text
Duration : 1 h 42 min
Bit rate : 61 b/s
Count of elements : 1237
Stream size : 45.9 KiB (0%)
Language : English
Default : No
Forced : No

Скриншот с названием фильма

Скриншоты

[Профиль] [ЛС]
Показать сообщения:    
Ответить на тему

Текущее время: 23-Фев 00:03

Часовой пояс: UTC + 3



Вы не можете начинать темы
Вы не можете отвечать на сообщения
Вы не можете редактировать свои сообщения
Вы не можете удалять свои сообщения
Вы не можете голосовать в опросах
Вы не можете прикреплять файлы к сообщениям
Вы можете скачивать файлы