BitTorrent клиенты



Город бога 2 / Cidade dos Homens (Паоло Морелли / Paulo Morelli) [2007, Бразилия, драма, криминал, DVDRip] MVO

Ответить на тему
 
Автор Сообщение

Angel ®

Пол: Не указан

Стаж: 1 год

Сообщений: 1346

Создавать темы 05-Фев-2018 18:12

[Цитировать]

Город бога 2 / Cidade dos Homens Страна: Бразилия
Жанр: драма, криминал
Год выпуска: 2007
Продолжительность: 01:46:11
Перевод: Профессиональный (многоголосый закадровый)
Субтитры: отсутствуют
Режиссёр: Паоло Морелли / Paulo Morelli
В ролях: Дуглас Силва, Дарлан Кунья, Джонатан Хаагенсен, Родригу душ Сантуш, Камила Монтейру, Наима Силва, Эдуардо "БР" Пиранья, Лучиано Видигаль, Педро Энрике, Маурисио Гонсалвез, Витор Оливейра, и др.-Описание: Два лучших друга, на пороге восемнадцатилетия, раскрывают тайну прошлого своих пропавших отцов, бросающую тень на их дружбу, и толкающую в водоворот захлестнувшей задворки Рио наркобойни...-Sample
Качество видео: DVDRip
Формат видео: AVI
Video: 672x368 (1.83:1), 23.976 fps, XviD build 47 ~844 kbps avg, 0.14 bit/pixel
Audio: 48 kHz, MPEG Layer 3, 2 ch, ~128.00 kbps avg

AviInfo

File: Gorod.boga.2.2007.avi
FileSize: 745.75 Mb ( 781 971 456 bytes )
Play length: 01:46:11.865 (152772 frames)
Subtitles: Not Present
Video: 672x368 (1.83:1), 23.976 fps, XviD build 47 ~844 kbps avg, 0.14 bit/pixel
Audio: 48 kHz, MPEG Layer 3, 2 ch, ~128.00 kbps avg

MediaInfo

Общее
Полное имя : D:\Gorod.boga.2.2007.avi
Формат : AVI
Формат/Информация : Audio Video Interleave
Размер файла : 746 Мбайт
Продолжительность : 1 ч. 46 м.
Общий поток : 982 Кбит/сек
Программа кодирования : VirtualDubMod 1.5.10.2 (build 2540/release)
Библиотека кодирования : VirtualDubMod build 2540/release
Видео
Идентификатор : 0
Формат : MPEG-4 Visual
Профиль формата : Advanced Simple@L5
Параметр BVOP формата : 1
Параметр QPel формата : Нет
Параметр GMC формата : Без точки перехода
Параметр матрицы формата : Default (H.263)
Идентификатор кодека : XVID
Идентификатор кодека/Подсказка : XviD
Продолжительность : 1 ч. 46 м.
Битрейт : 844 Кбит/сек
Ширина : 672 пикселя
Высота : 368 пикселей
Соотношение сторон : 1,85:1
Частота кадров : 23,976 кадра/сек
Цветовое пространство : YUV
Субдискретизация насыщенности : 4:2:0
Битовая глубина : 8 бит
Тип развёртки : Прогрессивная
Метод сжатия : С потерями
Бит/(Пиксели*Кадры) : 0.142
Размер потока : 641 Мбайт (86%)
Библиотека кодирования : XviD 1.2.0.dev47 (UTC 2006-11-01)
Аудио
Идентификатор : 1
Формат : MPEG Audio
Версия формата : Version 1
Профиль формата : Layer 3
Идентификатор кодека : 55
Идентификатор кодека/Подсказка : MP3
Продолжительность : 1 ч. 46 м.
Вид битрейта : Постоянный
Битрейт : 128 Кбит/сек
Каналы : 2 канала
Частота : 48,0 КГц
Метод сжатия : С потерями
Размер потока : 97,2 Мбайт (13%)
Выравнивание : Соединение по промежуткам
Продолжительность промежутка : 42 мс. (1,00 видеокадр)
Время предзагрузки промежутка : 504 мс.
Библиотека кодирования : LAME3.97
Настройки программы : -m s -V 4 -q 2 -lowpass 17 -b 128

Скриншот c названием фильма

Скриншоты

В рамках ликвидации приватных раздач, торрент-файл перезагружен 10-Июн-17 14:25.

http://rutracker.org/forum/viewtopic.php?t=5403618-Оформление отредактировано, для приведения в соответствие с действующими правилами раздела "Зарубежное кино" - http://rutracker.org/forum/viewtopic.php?t=2336007 .-Содержимое не менялось. Просьба к ранее скачавшим, скачать новый торрент-файл и присоединиться к раздаче - http://rutracker.org/forum/viewtopic.php?t=3473252 .
[Профиль] [ЛС]
Показать сообщения:    
Ответить на тему

Текущее время: 19-Фев 16:24

Часовой пояс: UTC + 3



Вы не можете начинать темы
Вы не можете отвечать на сообщения
Вы не можете редактировать свои сообщения
Вы не можете удалять свои сообщения
Вы не можете голосовать в опросах
Вы не можете прикреплять файлы к сообщениям
Вы можете скачивать файлы