BitTorrent клиенты



Форсаж 4 / Fast & Furious (Джастин Лин / Justin Lin) [2009, США, боевик, триллер, драма, криминал, WEB-DLRip-AVC] [Open Matte] Dub + 2x AVO (Гаврилов, Немахов) + Sub Rus Eng + Original Eng

Ответить на тему
 
Автор Сообщение

Angel ®

Пол: Не указан

Стаж: 1 год

Сообщений: 1346

Создавать темы 05-Фев-2018 18:17

[Цитировать]

Форсаж 4 / Fast & Furious / Open Matte
-Часть 1 | Часть 2 | Часть 4 | Часть 5 | Часть 6 | Часть 8-Год выпуска: 2009
Страна: США
Жанр: боевик, триллер, драма, криминал
Продолжительность: 01:46:46
Перевод: Профессиональный (дублированный)
Перевод 2: Авторский (одноголосый закадровый) А.Гаврилов
Перевод 3: Авторский (одноголосый закадровый) Ю.Немахов
Субтитры: русские, английские
Оригинальная аудиодорожка: английский
Режиссер: Джастин Лин / Justin Lin
В ролях: Вин Дизель, Пол Уокер, Джордана Брюстер, Мишель Родригес, Джон Ортиз, Лас Алонсо, Гал Гадот, Джек Конли, Ши Уигхэм, Лиза Лапира.
Описание: Когда кривая дорожка заставляет скрывающегося от правосудия Дома Торетто вернуться в Лос-Анджелес, вражда с агентом Брайаном О’Коннером вспыхивает с новой силой. Но у парочки обнаруживается общий противник, и Дому с Брайаном приходится заключить перемирие в надежде одержать над ним победу. Грабя конвои, роя подкопы и пересекая границы, они приходят к идеальной форме отмщения — педали газа, вдавленной до упора.
Доп. информация: Исходник WEB DL Amazon
Различия BD и WEB-DL - разное наполнение кадра - 16:9 (1.78:1) -> http://screenshotcomparison.com/comparison/125612
Фильмы в Fullscreen (4:3) и Open Matte (16:9) форматах
Сэмпл: http://multi-up.com/1179498
Качество видео: WEB-DLRip-AVC [Fast and Furious (2009) WEB-DL 1080p [Open Matte] -BLUEBIRD.mkv]
Формат видео: MKV
Видео: MPEG-4 AVC/H.264 / 2100 kbps / 1024x576 / 23.976 fps
Аудио: DUB (Rus) / AC3 / 6 ch / 384 kbps / 48 kHz
Аудио 2: Original (Eng) / AC3 / 6 ch / 384 kbps / 48 kHz
Аудио 3: AVO Гаврилов (Rus) / AC3 / 6 ch / 448 kbps / 48 kHz - отдельно
Аудио 4: AVO Немахов (Rus) / AC3 / 6 ch / 448 kbps / 48 kHz - отдельно
Формат субтитров: softsub (SRT)
Доп. информация о субтитрах: Русские (forced, 2x full), Английские (full)
#Сохранены оригинальные чаптеры как на Blu-ray

MediaInfo

General
Unique ID : 201690328512223488242590955120449621723 (0x97BC24F1FDDA686C8E908B06ED210EDB)
Complete name : J:\Torrents\Готовые релизы\Форсаж 4 (2009) WEB-DLRip-AVC [Open Matte]\Форсаж 4 (2009) WEB-DLRip-AVC [Open Matte].mkv
Format : Matroska
Format version : Version 2
File size : 2.19 GiB
Duration : 1 h 46 min
Overall bit rate : 2 933 kb/s
Movie name : Форсаж 4 / Fast & Furious (2009) [Open Matte]
Encoded date : UTC 2017-12-05 22:07:36
Writing application : mkvmerge v5.5.0 ('Healer') built on Apr 24 2012 23:47:03
Writing library : libebml v1.2.3 + libmatroska v1.3.0
Cover : Yes
Attachments : Cover.png
Video
ID : 1
Format : AVC
Format/Info : Advanced Video Codec
Format profile : High@L3.1
Format settings : CABAC / 8 Ref Frames
Format settings, CABAC : Yes
Format settings, ReFrames : 8 frames
Codec ID : V_MPEG4/ISO/AVC
Duration : 1 h 46 min
Bit rate : 2 100 kb/s
Width : 1 024 pixels
Height : 576 pixels
Display aspect ratio : 16:9
Frame rate mode : Constant
Frame rate : 23.976 FPS
Color space : YUV
Chroma subsampling : 4:2:0
Bit depth : 8 bits
Scan type : Progressive
Bits/(Pixel*Frame) : 0.148
Stream size : 1.52 GiB (70%)
Title : WEB-DLRip (AVC) / MPEG-4 AVC/H.264 / 2100 kbps / 1024x576 / 23.976 fps
Writing library : x264 core 146 r2538 121396c
Encoding settings : cabac=1 / ref=8 / deblock=1:0:0 / analyse=0x3:0x113 / me=umh / subme=10 / psy=1 / psy_rd=1.00:0.00 / mixed_ref=1 / me_range=32 / chroma_me=1 / trellis=2 / 8x8dct=1 / cqm=0 / deadzone=21,11 / fast_pskip=0 / chroma_qp_offset=-2 / threads=6 / lookahead_threads=1 / sliced_threads=0 / nr=0 / decimate=1 / interlaced=0 / bluray_compat=0 / constrained_intra=0 / bframes=9 / b_pyramid=2 / b_adapt=2 / b_bias=0 / direct=3 / weightb=1 / open_gop=0 / weightp=2 / keyint=250 / keyint_min=23 / scenecut=40 / intra_refresh=0 / rc_lookahead=50 / rc=2pass / mbtree=1 / bitrate=2100 / ratetol=1.0 / qcomp=0.60 / qpmin=0 / qpmax=69 / qpstep=4 / cplxblur=20.0 / qblur=0.5 / vbv_maxrate=14000 / vbv_bufsize=14000 / nal_hrd=none / filler=0 / ip_ratio=1.40 / aq=1:1.00
Language : English
Default : Yes
Forced : Yes
Audio #1
ID : 2
Format : AC-3
Format/Info : Audio Coding 3
Codec ID : A_AC3
Duration : 1 h 46 min
Bit rate mode : Constant
Bit rate : 384 kb/s
Channel(s) : 6 channels
Channel positions : Front: L C R, Side: L R, LFE
Sampling rate : 48.0 kHz
Frame rate : 31.250 FPS (1536 SPF)
Bit depth : 16 bits
Compression mode : Lossy
Stream size : 293 MiB (13%)
Title : DUB (Rus) / AC3 / 6 ch / 384 kbps / 48 kHz
Language : Russian
Service kind : Complete Main
Default : Yes
Forced : Yes
Audio #2
ID : 3
Format : AC-3
Format/Info : Audio Coding 3
Codec ID : A_AC3
Duration : 1 h 46 min
Bit rate mode : Constant
Bit rate : 448 kb/s
Channel(s) : 6 channels
Channel positions : Front: L C R, Side: L R, LFE
Sampling rate : 48.0 kHz
Frame rate : 31.250 FPS (1536 SPF)
Bit depth : 16 bits
Compression mode : Lossy
Stream size : 342 MiB (15%)
Title : Original (Eng) / AC3 / 6 ch / 448 kbps / 48 kHz
Language : English
Service kind : Complete Main
Default : No
Forced : No
Text #1
ID : 4
Format : UTF-8
Codec ID : S_TEXT/UTF8
Codec ID/Info : UTF-8 Plain Text
Title : Forced (Rus) / S_TEXT/UTF8
Language : Russian
Default : Yes
Forced : Yes
Text #2
ID : 5
Format : UTF-8
Codec ID : S_TEXT/UTF8
Codec ID/Info : UTF-8 Plain Text
Title : Full 1 (Rus) / S_TEXT/UTF8
Language : Russian
Default : No
Forced : No
Text #3
ID : 6
Format : UTF-8
Codec ID : S_TEXT/UTF8
Codec ID/Info : UTF-8 Plain Text
Title : Full 2 (Rus) / S_TEXT/UTF8
Language : Russian
Default : No
Forced : No
Text #4
ID : 7
Format : UTF-8
Codec ID : S_TEXT/UTF8
Codec ID/Info : UTF-8 Plain Text
Title : Full (Eng) / S_TEXT/UTF8
Language : English
Default : No
Forced : No
Menu
00:00:00.000 : en:Game Time
00:07:26.529 : en:Ride Or Die
00:11:46.955 : en:Foot Pursuit
00:16:46.755 : en:Coming Home
00:24:24.087 : en:Back On The Scene
00:29:05.452 : en:Tuned-Up
00:34:05.293 : en:A Real Driver
00:37:30.790 : en:Muscle Beats Import
00:46:07.347 : en:Boss Os Bosses
00:53:37.380 : en:Along For The Ride
00:58:15.158 : en:High-Performance
01:04:49.218 : en:Spotted Together
01:07:29.879 : en:Food, Family, Friendship
01:12:01.859 : en:Just Business
01:14:46.523 : en:Primary Target
01:20:36.164 : en:Juisdiction Ends
01:25:03.264 : en:Ain't Forgiven
01:29:09.385 : en:Run For The Border
01:35:54.999 : en:Steet Pardon
01:39:24.957 : en:End Titles

Скриншот c названием фильма

Скриншоты

[Профиль] [ЛС]
Показать сообщения:    
Ответить на тему

Текущее время: 21-Фев 23:38

Часовой пояс: UTC + 3



Вы не можете начинать темы
Вы не можете отвечать на сообщения
Вы не можете редактировать свои сообщения
Вы не можете удалять свои сообщения
Вы не можете голосовать в опросах
Вы не можете прикреплять файлы к сообщениям
Вы можете скачивать файлы