BitTorrent клиенты



Последний богатырь (Дмитрий Дьяченко) [2017, Россия, комедия, семейный, фэнтези, WEB-DL 1080p] + Original Rus

Ответить на тему
 
Автор Сообщение

Вектор ®

Пол: Не указан

Стаж: 1 год

Сообщений: 4452

Создавать темы 05-Фев-2018 18:17

[Цитировать]

Последний богатырь
Страна: Россия
Жанр: комедия, семейный, фэнтези
Год выпуска: 2017
Продолжительность: 01:53:48-Перевод: Не требуется
Субтитры: нет
Оригинальная аудиодорожка: русский-Режиссер: Дмитрий Дьяченко-В ролях: Виктор Хориняк, Мила Сивацкая, Екатерина Вилкова, Елена Яковлева, Константин Лавроненко, Евгений Дятлов, Александр Семчев, Сергей Бурунов, Александр Кухаренко, Марина Калецкая
Описание: Иван, обычный парень, по воле случая переносится из современной Москвы в фантастическую страну Белогорье. В этом параллельном мире живут герои русских сказок, волшебство — неотъемлемая часть быта, а спорные вопросы решаются битвой на богатырских мечах. Неожиданно Иван оказывается в самом центре борьбы светлых и темных сил, вот только непонятно, почему главная роль в происходящих событиях, по всеобщему мнению, уготована именно ему.-Тип релиза: WEB-DL 1080p
Контейнер: MKV-Видео: 1920x 804 (2.40:1), 24 fps, MPEG-4 AVC, ~ 4414 kbps, 0.119 Bits/(Pixel*Frame)-Аудио: 48 kHz, AC3, 3/2 (L,C,R,l,r) + LFE ch, ~ 384 kbps avg

MediaInfo

General
Unique ID : 214974122907039975956552546114770549861 (0xA1BA829320EF2F8E8EC26E4F88BBBC65)
Complete name : E:\POSLEDNIJ.BOGATYR.WEB.DL.1080.mkv
Format : Matroska
Format version : Version 2
File size : 3.89 GiB
Duration : 1 h 53 min
Overall bit rate : 4 896 kb/s
Encoded date : UTC 2017-12-07 08:03:57
Writing application : mkvmerge v5.6.0 ('Kenya Kane') built on May 27 2012 16:44:04
Writing library : libebml v1.2.3 + libmatroska v1.3.0
Video
ID : 1
Format : AVC
Format/Info : Advanced Video Codec
Format profile : High@L4
Format settings, CABAC : Yes
Format settings, RefFrames : 5 frames
Codec ID : V_MPEG4/ISO/AVC
Duration : 1 h 53 min
Bit rate : 4 414 kb/s
Width : 1 920 pixels
Height : 804 pixels
Display aspect ratio : 2.40:1
Frame rate mode : Constant
Frame rate : 24.000 FPS
Color space : YUV
Chroma subsampling : 4:2:0
Bit depth : 8 bits
Scan type : Progressive
Bits/(Pixel*Frame) : 0.119
Stream size : 3.51 GiB (90%)
Language : English
Default : Yes
Forced : No
Color range : Limited
Color primaries : BT.709
Transfer characteristics : BT.709
Matrix coefficients : BT.709
Audio
ID : 2
Format : AC-3
Format/Info : Audio Coding 3
Format settings, Endianness : Big
Codec ID : A_AC3
Duration : 1 h 53 min
Bit rate mode : Constant
Bit rate : 384 kb/s
Channel(s) : 6 channels
Channel positions : Front: L C R, Side: L R, LFE
Sampling rate : 48.0 kHz
Frame rate : 31.250 FPS (1536 SPF)
Bit depth : 16 bits
Compression mode : Lossy
Stream size : 313 MiB (8%)
Title : (iTunes)
Language : Russian
Service kind : Complete Main
Default : Yes
Forced : No
Menu
00:00:00.000 : en:Глава 1
00:06:59.375 : en:Глава 2
00:14:35.333 : en:Глава 3
00:22:22.374 : en:Глава 4
00:28:29.957 : en:Глава 5
00:35:31.790 : en:Глава 6
00:41:42.040 : en:Глава 7
00:47:39.456 : en:Глава 8
00:54:12.081 : en:Глава 9
01:02:50.747 : en:Глава 10
01:11:07.455 : en:Глава 11
01:19:08.121 : en:Глава 12
01:28:40.537 : en:Глава 13
01:35:01.287 : en:Глава 14
01:44:42.912 : en:Глава 15

Скриншоты

[Профиль] [ЛС]
Показать сообщения:    
Ответить на тему

Текущее время: 23-Фев 00:17

Часовой пояс: UTC + 3



Вы не можете начинать темы
Вы не можете отвечать на сообщения
Вы не можете редактировать свои сообщения
Вы не можете удалять свои сообщения
Вы не можете голосовать в опросах
Вы не можете прикреплять файлы к сообщениям
Вы можете скачивать файлы