BitTorrent клиенты



Аэроплан! / Airplane! (Джим Эбрахамс /Jim Abrahams/, Дэвид Зукер /David Zucker/, Джерри Зукер /Jerry Zucker) [720p] [1980, Комедия, HDTVRip]

Ответить на тему
 
Автор Сообщение

Вектор ®

Пол: Не указан

Стаж: 1 год

Сообщений: 4452

Создавать темы 05-Фев-2018 18:12

[Цитировать]

Аэроплан! / Airplane!
Год выпуска: 1980
Страна: США
Жанр: Комедия
Продолжительность: 01:27:37
Перевод: Профессиональный (многоголосый, закадровый) + Одноголосый (Гаврилов)
Русские субтитры: нет
Режиссер: Джим Эбрахамс /Jim Abrahams/, Дэвид Зукер /David Zucker/, Джерри Зукер /Jerry Zucker/
В ролях: Роберт Хэйз /Robert Hays/, Джули Хэгерти /Julie Hagerty/, Роберт Стэк /Robert Stack/, Ллойд Бриджес /Lloyd Bridges/, Питер Грэйвз /Peter Graves/, Лесли Нилсен /Leslie Nielsen/, Лорна Пэттерсон /Lorna Patterson/, Стивен Стакер /Stephen Stucker/, Карим Абдул-Джаббар /Kareem Abdul-Jabbar/, Барбара Биллингсли /Barbara Billingsley/
Описание: Самолет летит в Чикаго, пилот летит в Нью-Йорк, а пассажиры... События и персонажи в этой сумасбродной комедии, славу богу, вымышленные. Бывший военный летчик-истребитель (Хэйс) берет на себя управление самолетом, так как весь экипаж отравился рыбой...
Качество: HDTVRip
Формат: MKV
Видео кодек: H.264
Аудио кодек: AC3
Видео: 1280x720, x264, 23.976 fps, ~ 6753 kbps
Аудио: Русский DD 5.1 - 384 kb/s (Многоголосый); Русский DD 5.1 - 384 kb/s (Одноголосый); Английский DD 2.0 - 384 kb/s

MediaInfo

General
Unique ID : 178968002554138930986392989075626338539 (0x86A3FBC801DC765F88EBD4EC3FB928EB)
Complete name : F:\new2\Aeroplan.HDTVRip.720p.x264.MIF.mkv
Format : Matroska
Format version : Version 1
File size : 4.84 GiB
Duration : 1 h 27 min
Overall bit rate : 7 906 kb/s
Encoded date : UTC 2008-10-26 15:47:47
Writing application : mkvmerge v2.2.0 ('Turn It On Again') built on Mar 4 2008 12:58:26
Writing library : libebml v0.7.7 + libmatroska v0.8.1
Video
ID : 1
Format : AVC
Format/Info : Advanced Video Codec
Format profile : High@L4.1
Format settings : CABAC / 4 Ref Frames
Format settings, CABAC : Yes
Format settings, RefFrames : 4 frames
Codec ID : V_MPEG4/ISO/AVC
Duration : 1 h 27 min
Bit rate : 6 753 kb/s
Width : 1 280 pixels
Height : 720 pixels
Display aspect ratio : 16:9
Frame rate mode : Constant
Frame rate : 23.976 (24000/1001) FPS
Color space : YUV
Chroma subsampling : 4:2:0
Bit depth : 8 bits
Scan type : Progressive
Bits/(Pixel*Frame) : 0.306
Stream size : 4.04 GiB (83%)
Writing library : x264 core 65 r999M cc51047
Encoding settings : cabac=1 / ref=4 / deblock=1:-3:-3 / analyse=0x3:0x113 / me=umh / subme=9 / psy_rd=1.0:1.0 / mixed_ref=1 / me_range=24 / chroma_me=1 / trellis=2 / 8x8dct=1 / cqm=0 / deadzone=21,11 / chroma_qp_offset=-4 / threads=6 / nr=0 / decimate=1 / mbaff=0 / bframes=3 / b_pyramid=0 / b_adapt=2 / b_bias=0 / direct=3 / wpredb=1 / keyint=250 / keyint_min=25 / scenecut=40(pre) / rc=2pass / bitrate=6753 / ratetol=1.0 / qcomp=0.60 / qpmin=10 / qpmax=51 / qpstep=4 / cplxblur=20.0 / qblur=0.5 / ip_ratio=1.40 / pb_ratio=1.30 / aq=1:0.60
Language : English
Default : Yes
Forced : No
Audio #1
ID : 2
Format : AC-3
Format/Info : Audio Coding 3
Format settings, Endianness : Big
Codec ID : A_AC3
Duration : 1 h 27 min
Bit rate mode : Constant
Bit rate : 384 kb/s
Channel(s) : 2 channels
Channel positions : Front: L R
Sampling rate : 48.0 kHz
Frame rate : 31.250 FPS (1536 SPF)
Bit depth : 16 bits
Compression mode : Lossy
Stream size : 241 MiB (5%)
Title : DD 2.0
Language : English
Service kind : Complete Main
Default : Yes
Forced : No
Audio #2
ID : 3
Format : AC-3
Format/Info : Audio Coding 3
Format settings, Endianness : Big
Codec ID : A_AC3
Duration : 1 h 27 min
Bit rate mode : Constant
Bit rate : 384 kb/s
Channel(s) : 6 channels
Channel positions : Front: L C R, Side: L R, LFE
Sampling rate : 48.0 kHz
Frame rate : 31.250 FPS (1536 SPF)
Bit depth : 16 bits
Compression mode : Lossy
Stream size : 241 MiB (5%)
Title : DD 5.1 (Gavrilov) by MIF
Language : Russian
Service kind : Complete Main
Default : No
Forced : No
Audio #3
ID : 4
Format : AC-3
Format/Info : Audio Coding 3
Format settings, Endianness : Big
Codec ID : A_AC3
Duration : 1 h 27 min
Bit rate mode : Constant
Bit rate : 384 kb/s
Channel(s) : 6 channels
Channel positions : Front: L C R, Side: L R, LFE
Sampling rate : 48.0 kHz
Frame rate : 31.250 FPS (1536 SPF)
Bit depth : 16 bits
Compression mode : Lossy
Stream size : 241 MiB (5%)
Title : DD 5.1 (Mnogogolosiy) by MIF
Language : Russian
Service kind : Complete Main
Default : No
Forced : No

Скриншоты

Аэроплан 2 / Airplane II: The Sequel (Кен Финкельман) [720p] [1982, Комедия, HDTVRip]
[Профиль] [ЛС]
Показать сообщения:    
Ответить на тему

Текущее время: 21-Фев 23:40

Часовой пояс: UTC + 3



Вы не можете начинать темы
Вы не можете отвечать на сообщения
Вы не можете редактировать свои сообщения
Вы не можете удалять свои сообщения
Вы не можете голосовать в опросах
Вы не можете прикреплять файлы к сообщениям
Вы можете скачивать файлы