BitTorrent клиенты



Раскоп (Сергей Дахин) [2015, Россия, драма, комедия, WEB-DL 1080p] Original Rus

Ответить на тему
 
Автор Сообщение

Вектор ®

Пол: Не указан

Стаж: 1 год

Сообщений: 4450

Создавать темы 05-Фев-2018 18:17

[Цитировать]

Раскоп
Страна: Россия
Студия: Кинокомпания "Любители"
Жанр: драма, комедия
Год выпуска: 2015
Продолжительность: 01:23:21
Перевод: Не требуется
Субтитры: нет
Оригинальная аудиодорожка: русский
Режиссер: Сергей Дахин
В ролях: Кирилл Пирогов, Никита Тюнин, Олег Нирян, Екатерина Федулова, Игорь Цышкевич, Александр Петров, Владас Багдонас, Пётр Ступин, Александр Безсмертный, Ксения Богданова, Наталия Денисенко, Лера Лахина, Алёна Данилова, Марина Данилова, Ангелина Турская, Анжелина Харченко, Настя Якуш, Ирина Литвинчук, Александр Гребеник, Александр Волошин, Сергей Калиниченко, Виталий Деркач

Описание: Писатель-неудачник Паша и двое его школьных друзей — алкоголик-бизнесмен Самородов и примерный семьянин Скляренко, заскучав от повседневной суеты, жён и рутины, решают отправиться в отпуск навстречу приключениям. Волею судьбы сорокалетние мальчишки оказываются на археологическом раскопе. Получив возможность столкнуться со своим прошлым, Паша, освободившись от иллюзий, комплексов и страхов, наконец, обретает внутреннюю гармонию…

Sample
Тип релиза: WEB-DL 1080p
Контейнер: MKV
Видео: MPEG4 AVC Video, H264, 1920x784, 24 fps, 4396 kbps
Аудио: Russian (AC3, 6 ch, 384 kbps, 16 bits, 48.0 KHz) - оригинал

MediaInfo

General
Unique ID : 183994489979035685916017608689633820662 (0x8A6C0CBEBA88A69CABBF576AA9857FF6)
Complete name : D:\Раскоп 2015 WEB-DL 1080p.mkv
Format : Matroska
Format version : Version 4 / Version 2
File size : 2.84 GiB
Duration : 1h 23mn
Overall bit rate : 4 878 Kbps
Encoded date : UTC 2015-05-03 10:01:42
Writing application : mkvmerge v6.9.1 ('Blue Panther') 64bit built on Apr 18 2014 18:23:38
Writing library : libebml v1.3.0 + libmatroska v1.4.1
Video
ID : 1
Format : AVC
Format/Info : Advanced Video Codec
Format profile : High@L4.0
Format settings, CABAC : Yes
Format settings, ReFrames : 5 frames
Codec ID : V_MPEG4/ISO/AVC
Duration : 1h 23mn
Bit rate : 4 396 Kbps
Width : 1 920 pixels
Height : 784 pixels
Display aspect ratio : 2.40:1
Frame rate mode : Constant
Frame rate : 24.000 fps
Color space : YUV
Chroma subsampling : 4:2:0
Bit depth : 8 bits
Scan type : Progressive
Bits/(Pixel*Frame) : 0.122
Stream size : 2.56 GiB (90%)
Language : English
Default : Yes
Forced : No
Color primaries : BT.709
Transfer characteristics : BT.709
Matrix coefficients : BT.709
Audio
ID : 2
Format : AC-3
Format/Info : Audio Coding 3
Mode extension : CM (complete main)
Format settings, Endianness : Big
Codec ID : A_AC3
Duration : 1h 23mn
Bit rate mode : Constant
Bit rate : 384 Kbps
Channel count : 6 channels
Channel positions : Front: L C R, Side: L R, LFE
Sampling rate : 48.0 KHz
Bit depth : 16 bits
Compression mode : Lossy
Stream size : 229 MiB (8%)
Language : Russian
Default : Yes
Forced : No
Menu
00:00:00.000 : en:Глава 1
00:05:54.000 : en:Глава 2
00:10:25.000 : en:Глава 3
00:15:53.000 : en:Глава 4
00:19:11.000 : en:Глава 5
00:25:07.000 : en:Глава 6
00:31:17.000 : en:Глава 7
00:34:42.000 : en:Глава 8
00:38:07.000 : en:Глава 9
00:41:48.000 : en:Глава 10
00:46:13.000 : en:Глава 11
00:50:42.000 : en:Глава 12
00:54:55.000 : en:Глава 13
00:59:30.000 : en:Глава 14
01:05:20.000 : en:Глава 15
01:10:04.000 : en:Глава 16
01:15:09.000 : en:Глава 17

Скриншоты


[Профиль] [ЛС]
Показать сообщения:    
Ответить на тему

Текущее время: 19-Фев 16:20

Часовой пояс: UTC + 3



Вы не можете начинать темы
Вы не можете отвечать на сообщения
Вы не можете редактировать свои сообщения
Вы не можете удалять свои сообщения
Вы не можете голосовать в опросах
Вы не можете прикреплять файлы к сообщениям
Вы можете скачивать файлы