BitTorrent клиенты



Магистраль (Виктор Трегубович) [1982, СССР, драма, HDTV 1080i]

Ответить на тему
 
Автор Сообщение

Вектор ®

Пол: Не указан

Стаж: 1 год

Сообщений: 4450

Создавать темы 05-Фев-2018 18:17

[Цитировать]

Магистраль
Страна: СССР
Жанр: драма
Год выпуска: 1982
Продолжительность: 01:27:41
Перевод: Не требуется
Субтитры: нет
Оригинальная аудиодорожка: русский
Режиссёр: Виктор Трегубович
В ролях: Кирилл Лавров, Всеволод Кузнецов, Марина Трегубович (Выборнова), Павел Семенихин, Людмила Гурченко, Владимир Гостюхин, Иван Агафонов, Игорь Дмитриев, Сергей Проханов, Михаил Погоржельский, Борис Соколов, Юрий Демич, Владимир Меньшов, Фёдор Одиноков
Описание: Действие фильма происходит на железной дороге (название дороги вымышленное, но съёмки производились на Красноярской ж/д) в течение одних суток. Пропускная способность дороги ниже необходимой. На плечи диспетчера (Владимир Гостюхин) ложится ответственность провести по участку большой поток грузовых составов, а также не выбить из графика пассажирские поезда, в том числе фирменный поезд в Москву.
Доп. информация: Запись потока *.ts со спутника EUTELSAT 36A/B, 36° в.д., ремукс в *.mkv программой VideoReDo.
Качество видео: HDTV 1080i
Формат видео: MKV
Видео: Advanced Video Codec, 1920x1080 (4:3), 25,000 кадров/сек, 7 187 Кбит/сек
Аудио: AC-3, 48,0 КГц, 448 Кбит/сек, 6 каналов

MediaInfo

General
Unique ID : 251499818237700501262594298427753175735 (0xBD351A64725438C90B142134F8451AB7)
Complete name : E:\НАШЕ\ХУДОЖЕСТВЕННЫЕ\МАГИСТРАЛЬ (Наше Любимое HD).mkv
Format : Matroska
Format version : Version 2
File size : 4.77 GiB
Duration : 1 h 27 min
Overall bit rate : 7 790 kb/s
Writing application : Lavf52.64.2
Writing library : Lavf52.64.2
Video
ID : 1
Format : AVC
Format/Info : Advanced Video Codec
Format profile : Main@L4
Format settings : CABAC / 4 Ref Frames
Format settings, CABAC : Yes
Format settings, RefFrames : 4 frames
Format settings, GOP : M=1, N=32
Codec ID : V_MPEG4/ISO/AVC
Duration : 1 h 27 min
Bit rate : 7 187 kb/s
Width : 1 920 pixels
Height : 1 080 pixels
Display aspect ratio : 16:9
Frame rate mode : Constant
Frame rate : 25.000 FPS
Color space : YUV
Chroma subsampling : 4:2:0
Bit depth : 8 bits
Scan type : Interlaced
Scan type, store method : Separated fields
Scan order : Top Field First
Bits/(Pixel*Frame) : 0.139
Stream size : 4.40 GiB (92%)
Default : Yes
Forced : No
Color range : Limited
Color primaries : BT.709
Transfer characteristics : BT.709
Matrix coefficients : BT.709
Audio
ID : 2
Format : AC-3
Format/Info : Audio Coding 3
Format settings, Endianness : Big
Codec ID : A_AC3
Duration : 1 h 27 min
Bit rate mode : Constant
Bit rate : 448 kb/s
Channel(s) : 6 channels
Channel positions : Front: L C R, Side: L R, LFE
Sampling rate : 48.0 kHz
Frame rate : 31.250 FPS (1536 SPF)
Bit depth : 16 bits
Compression mode : Lossy
Stream size : 281 MiB (6%)
Language : Russian
Service kind : Complete Main
Default : No
Forced : No
[Профиль] [ЛС]
Показать сообщения:    
Ответить на тему

Текущее время: 19-Фев 16:23

Часовой пояс: UTC + 3



Вы не можете начинать темы
Вы не можете отвечать на сообщения
Вы не можете редактировать свои сообщения
Вы не можете удалять свои сообщения
Вы не можете голосовать в опросах
Вы не можете прикреплять файлы к сообщениям
Вы можете скачивать файлы