BitTorrent клиенты



День, когда свинья упала в колодец / The Day A Pig Fell Into The Well / Daijiga umule pajinnal (Хон Сан Су / Sang-soo Hong) [1996, Корея Южная, драма, BDRip 720p] VO (О. Воротилин) + Sub Rus, Eng + Original Kor

Ответить на тему
 
Автор Сообщение

Angel ®

Пол: Не указан

Стаж: 1 год

Сообщений: 1346

Создавать темы 05-Фев-2018 18:17

[Цитировать]

День, когда свинья упала в колодец / The Day A Pig Fell Into The Well / Daijiga umule pajinnal
Страна: Корея Южная
Студия: Dong-a Exports Co. Ltd.
Жанр: драма
Год выпуска: 1996
Продолжительность: 01:56:06
Перевод: Одноголосый закадровый О. Воротилин по субтитрам CapitanEvidence
Субтитры: русские CapitanEvidence, английские
Оригинальная аудиодорожка: корейский
Режиссер: Хон Сан Су / Sang-soo Hong
В ролях: Пан Ын-хи, Чо Ын-сук, Ким И-сон, Ли Ын-гён, Мён Джи-ён, Парк Чжин-сон, Сон Кан-хо и др.
Описание: Несколько историй из жизни обычных людей: писателя, его любовницы - замужней женщины, ещё одной его возлюбленной, мужчины в командировке. И все эти истории к концу фильма сплетаются в тугой клубок порочных и роковых связей...
-
Сэмпл IMDB Кинопоиск
-
Доп. информация:
Заказ озвучки porvaliparus
Тип релиза: BDRip 720p
Контейнер: MKV
Видео: AVC / 1278x720 / 16:9 / 23.976 fps / 5200 Kbps / High@L4.1
Аудио 1 Rus: DTS / 48.0 KHz / 2.0 / 1509 kbps / 24 bit / VO / О. Воротилин
Аудио 2 Kor: DTS / 48.0 KHz / 2.0 / 1509kbps / 24 bit
Формат субтитров: softsub (SRT)

MediaInfo

Общее
Уникальный идентификатор : 188943278779057538735576465905579202800 (0x8E2526DEEDDE4A31A94724899C8818F0)
Полное имя : E:\porvaliparus\The.Day.A.Pig.Fell.Into.The.Well.1996.BDRip.720p.mkv
Формат : Matroska
Версия формата : Version 4 / Version 2
Размер файла : 6,67 Гбайт
Продолжительность : 1 ч. 56 м.
Общий поток : 8221 Кбит/сек
Название фильма : The.Day.A.Pig.Fell.Into.The.Well.1996.BDRip.720p]-porvaliparus
Дата кодирования : UTC 2017-11-20 04:49:05
Программа кодирования : mkvmerge v18.0.0 ('Apricity') 64-bit
Библиотека кодирования : libebml v1.3.5 + libmatroska v1.4.8
Видео
Идентификатор : 1
Формат : AVC
Формат/Информация : Advanced Video Codec
Профиль формата : High@L4.1
Настройки формата : CABAC / 9 Ref Frames
Параметр CABAC формата : Да
Параметр RefFrames формата : 9 кадров
Идентификатор кодека : V_MPEG4/ISO/AVC
Продолжительность : 1 ч. 56 м.
Битрейт : 5200 Кбит/сек
Ширина : 1278 пикселей
Высота : 720 пикселей
Соотношение сторон : 16:9
Режим частоты кадров : Постоянный
Частота кадров : 23,976 (24000/1001) кадра/сек
Цветовое пространство : YUV
Субдискретизация насыщенности : 4:2:0
Битовая глубина : 8 бит
Тип развёртки : Прогрессивная
Бит/(Пиксели*Кадры) : 0.236
Размер потока : 4,22 Гбайт (63%)
Заголовок : The.Day.A.Pig.Fell.Into.The.Well.1996.BDRip.720p
Библиотека кодирования : x264 core 152 r2851 ba24899
Настройки программы : cabac=1 / ref=9 / deblock=1:-3:-3 / analyse=0x3:0x133 / me=umh / subme=11 / psy=1 / psy_rd=1.00:0.10 / mixed_ref=1 / me_range=32 / chroma_me=1 / trellis=2 / 8x8dct=1 / cqm=0 / deadzone=21,11 / fast_pskip=0 / chroma_qp_offset=-3 / threads=12 / lookahead_threads=2 / sliced_threads=0 / nr=0 / decimate=1 / interlaced=0 / bluray_compat=0 / constrained_intra=0 / bframes=8 / b_pyramid=2 / b_adapt=2 / b_bias=0 / direct=3 / weightb=1 / open_gop=0 / weightp=2 / keyint=250 / keyint_min=23 / scenecut=40 / intra_refresh=0 / rc_lookahead=40 / rc=2pass / mbtree=0 / bitrate=5200 / ratetol=1.0 / qcomp=0.60 / qpmin=0 / qpmax=69 / qpstep=4 / cplxblur=20.0 / qblur=0.5 / vbv_maxrate=50000 / vbv_bufsize=62500 / nal_hrd=none / filler=0 / ip_ratio=1.40 / pb_ratio=1.30 / aq=1:0.80
Default : Да
Forced : Нет
Аудио #1
Идентификатор : 2
Формат : DTS
Формат/Информация : Digital Theater Systems
Идентификатор кодека : A_DTS
Продолжительность : 1 ч. 56 м.
Вид битрейта : Постоянный
Битрейт : 1509 Кбит/сек
Каналы : 2 канала
Расположение каналов : Front: L R
Частота : 48,0 КГц
Частота кадров : 93,750 кадра/сек (512 SPF)
Битовая глубина : 24 бит
Метод сжатия : С потерями
Размер потока : 1,22 Гбайт (18%)
Заголовок : VO [О. Воротилин]
Язык : Russian
Default : Да
Forced : Нет
Аудио #2
Идентификатор : 3
Формат : DTS
Формат/Информация : Digital Theater Systems
Идентификатор кодека : A_DTS
Продолжительность : 1 ч. 56 м.
Вид битрейта : Постоянный
Битрейт : 1509 Кбит/сек
Каналы : 2 канала
Расположение каналов : Front: L R
Частота : 48,0 КГц
Частота кадров : 93,750 кадра/сек (512 SPF)
Битовая глубина : 24 бит
Метод сжатия : С потерями
Размер потока : 1,22 Гбайт (18%)
Язык : Korean
Default : Нет
Forced : Нет
Текст #1
Идентификатор : 4
Формат : UTF-8
Идентификатор кодека : S_TEXT/UTF8
Идентификатор кодека/Информация : UTF-8 Plain Text
Продолжительность : 1 ч. 51 м.
Битрейт : 50 бит/сек
ElementCount : 933
Размер потока : 41,0 Кбайт (0%)
Заголовок : CapitanEvidence
Язык : Russian
Default : Нет
Forced : Нет
Текст #2
Идентификатор : 5
Формат : UTF-8
Идентификатор кодека : S_TEXT/UTF8
Идентификатор кодека/Информация : UTF-8 Plain Text
Продолжительность : 1 ч. 51 м.
Битрейт : 27 бит/сек
ElementCount : 930
Размер потока : 22,3 Кбайт (0%)
Язык : English
Default : Нет
Forced : Нет
Меню
00:00:00.000 : en:Chapter 01
00:02:15.176 : en:Chapter 02
00:08:37.141 : en:Chapter 03
00:16:44.169 : en:Chapter 04
00:22:57.751 : en:Chapter 05
00:36:39.030 : en:Chapter 06
00:46:09.224 : en:Chapter 07
00:56:57.038 : en:Chapter 08
01:02:58.816 : en:Chapter 09
01:14:09.528 : en:Chapter 10
01:18:32.833 : en:Chapter 11
01:22:24.814 : en:Chapter 12
01:29:38.581 : en:Chapter 13
01:37:15.120 : en:Chapter 14
01:44:02.986 : en:Chapter 15
01:54:34.492 : en:Chapter 16

Скриншоты


Дополнительная тех. информация

log x264

x264 [info]: using SAR=1/1
x264 [info]: using cpu capabilities: MMX2 SSE2Fast SSSE3 SSE4.2 AVX
x264 [info]: profile High, level 4.1
x264 [info]: frame I:800 Avg QP:12.81 size:151607
x264 [info]: frame P:31714 Avg QP:14.78 size: 61380
x264 [info]: frame B:134498 Avg QP:16.89 size: 18289
x264 [info]: consecutive B-frames: 1.0% 0.8% 2.9% 9.8% 16.7% 61.6% 5.9% 0.7% 0.5%
x264 [info]: mb I I16..4: 13.1% 60.8% 26.2%
x264 [info]: mb P I16..4: 0.6% 14.9% 1.4% P16..4: 23.4% 34.9% 19.4% 4.2% 0.3% skip: 1.0%
x264 [info]: mb B I16..4: 0.1% 1.5% 0.1% B16..8: 29.8% 27.3% 6.2% direct: 8.4% skip:26.6% L0:39.9% L1:35.8% BI:24.3%
x264 [info]: 8x8 transform intra:86.2% inter:36.2%
x264 [info]: direct mvs spatial:99.4% temporal:0.6%
x264 [info]: coded y,uvDC,uvAC intra: 96.0% 73.2% 56.5% inter: 31.7% 21.6% 2.5%
x264 [info]: i16 v,h,dc,p: 29% 5% 18% 48%
x264 [info]: i8 v,h,dc,ddl,ddr,vr,hd,vl,hu: 12% 9% 18% 9% 10% 10% 9% 11% 12%
x264 [info]: i4 v,h,dc,ddl,ddr,vr,hd,vl,hu: 11% 7% 5% 10% 15% 14% 12% 12% 12%
x264 [info]: i8c dc,h,v,p: 36% 35% 19% 10%
x264 [info]: Weighted P-Frames: Y:1.5% UV:0.9%
x264 [info]: ref P L0: 33.0% 8.3% 19.9% 8.4% 8.9% 6.1% 6.8% 3.8% 4.6% 0.1% 0.0%
x264 [info]: ref B L0: 79.6% 8.3% 4.1% 2.6% 1.8% 1.7% 1.2% 0.7%
x264 [info]: ref B L1: 98.2% 1.8%
x264 [info]: kb/s:5199.93
x264 [total]: encoded 167012 frames, 9.00 fps, 5199.93 kb/s

Source vs Encode


[Профиль] [ЛС]
Показать сообщения:    
Ответить на тему

Текущее время: 23-Фев 00:05

Часовой пояс: UTC + 3



Вы не можете начинать темы
Вы не можете отвечать на сообщения
Вы не можете редактировать свои сообщения
Вы не можете удалять свои сообщения
Вы не можете голосовать в опросах
Вы не можете прикреплять файлы к сообщениям
Вы можете скачивать файлы