BitTorrent клиенты



Гнев / Rage / Ikari (Ли Сан-иль / Sang-il Lee) [2016, Япония, триллер, драма, мелодрама, детектив, BDRemux 1080p] AVO (А. Дольский) + Sub Eng + Original Jap

Ответить на тему
 
Автор Сообщение

Angel ®

Пол: Не указан

Стаж: 1 год

Сообщений: 1346

Создавать темы 05-Фев-2018 18:18

[Цитировать]

Гнев / Rage / Ikari
Страна: Япония
Студия: Chunichi Shimbun, Chûôkôron Shinsha, Dentsu
Жанр: триллер, драма, мелодрама, детектив
Год выпуска: 2016
Продолжительность: 02:21:25
Перевод: Авторский (одноголосый закадровый) А. Дольский
Субтитры: английские
Оригинальная аудиодорожка: японский
Режиссер: Ли Сан-иль / Sang-il Lee
В ролях: Кен Ватанабе, Хикари Мицусима, Мираи Морияма, Аои Миядзаки, Сатоси Цумабуки, Го Аяно, Судзу Хиросэ, Хидэко Хара, Тидзуру Икэваки, Мицуки Такахата, Такахиро Миура, Пьер Таки, Урара Авата, Акира Эмото и др.
Описание: Человек зверски убивает семейную пару, а потом сбегает, оставив надпись кровью — слово «ГНЕВ». Полиция ищет убийцу по всей стране, но пока про него известно лишь одно — преступник сделал пластическую операцию и изменил внешность.
Портовый рабочий из Тибы уверен, что убийца — странный парень, с которым встречается его дочь. Гей-рекламщик из Токио начинает подозревать, что убийца — его партнёр, которого он привёл к себе жить. В свою очередь девушка, недавно переехавшая на Окинаву, встречает на пустынном острове туриста, который просит её никому про него не рассказывать.
-
Сэмпл IMDB Кинопоиск
-
Доп. информация:
Заказ перевода - porvaliparus
Тип релиза: BDRemux 1080p (Ikari.2016.1080p.JPN.Blu-Ray. AVC.DTS-HD.MA.5.1-Anonymous)
Контейнер: MKV
Видео: AVC / 1920x1080 / 16:9 / 23.976 fps / 27300 Kbps / High@L4.1
Аудио 1 Rus: DTS-HD MA / 48.0 KHz / 5.1 / 4213 kbps / 24 bit (DTS Core 48.0 KHz / 5.1 / 1509kbps / 24 bit) AVO / А. Дольский
Аудио 2 Jap: DTS-HD MA / 48.0 KHz / 5.1 / 4223 kbps / 24 bit (DTS Core 48.0 KHz / 5.1 / 1509kbps / 24 bit)
Формат субтитров: softsub (SRT)

MediaInfo

Общее
Уникальный идентификатор : 222230614709432569222143216716310867017 (0xA7300F3E3338509E9749CFCEEFF36C49)
Полное имя : D:\_Torrent\porvaliparus\Rage.2016.BDRemux.1080p.mkv
Формат : Matroska
Версия формата : Version 4 / Version 2
Размер файла : 35,3 Гбайт
Продолжительность : 2 ч. 21 м.
Общий поток : 35,7 Мбит/сек
Название фильма : Rage.2016.BDRemux.1080p-porvaliparus
Дата кодирования : UTC 2017-11-02 07:33:18
Программа кодирования : mkvmerge v17.0.0 ('Be Ur Friend') 64-bit
Библиотека кодирования : libebml v1.3.5 + libmatroska v1.4.8
Видео
Идентификатор : 1
Формат : AVC
Формат/Информация : Advanced Video Codec
Профиль формата : High@L4.1
Настройки формата : CABAC / 2 Ref Frames
Параметр CABAC формата : Да
Параметр RefFrames формата : 2 кадра
Параметр GOP формата : M=3, N=24
Идентификатор кодека : V_MPEG4/ISO/AVC
Продолжительность : 2 ч. 21 м.
Битрейт : 27,3 Мбит/сек
Ширина : 1920 пикселей
Высота : 1080 пикселей
Соотношение сторон : 16:9
Режим частоты кадров : Постоянный
Частота кадров : 23,976 (24000/1001) кадра/сек
Цветовое пространство : YUV
Субдискретизация насыщенности : 4:2:0
Битовая глубина : 8 бит
Тип развёртки : Прогрессивная
Бит/(Пиксели*Кадры) : 0.549
Размер потока : 26,9 Гбайт (76%)
Заголовок : Rage.2016.BDRemux.1080p
Default : Да
Forced : Нет
Аудио #1
Идентификатор : 2
Формат : DTS
Формат/Информация : Digital Theater Systems
Профиль формата : MA / Core
Режим : 16
Параметр Endianness формата : Big
Идентификатор кодека : A_DTS
Продолжительность : 2 ч. 21 м.
Вид битрейта : Переменный / Постоянный
Битрейт : 4213 Кбит/сек / 1509 Кбит/сек
Каналы : 6 каналов
Расположение каналов : Front: L C R, Side: L R, LFE
Частота : 48,0 КГц
Частота кадров : 93,750 кадра/сек (512 SPF)
Битовая глубина : 24 бит
Метод сжатия : Без потерь / Lossy
Размер потока : 4,16 Гбайт (12%)
Заголовок : AVO [А. Дольский]
Язык : Russian
Default : Да
Forced : Нет
Аудио #2
Идентификатор : 3
Формат : DTS
Формат/Информация : Digital Theater Systems
Профиль формата : MA / Core
Режим : 16
Параметр Endianness формата : Big
Идентификатор кодека : A_DTS
Продолжительность : 2 ч. 21 м.
Вид битрейта : Переменный / Постоянный
Битрейт : 4223 Кбит/сек / 1509 Кбит/сек
Каналы : 6 каналов
Расположение каналов : Front: L C R, Side: L R, LFE
Частота : 48,0 КГц
Частота кадров : 93,750 кадра/сек (512 SPF)
Битовая глубина : 24 бит
Метод сжатия : Без потерь / Lossy
Размер потока : 4,17 Гбайт (12%)
Язык : Japanese
Default : Нет
Forced : Нет
Текст
Идентификатор : 4
Формат : UTF-8
Идентификатор кодека : S_TEXT/UTF8
Идентификатор кодека/Информация : UTF-8 Plain Text
Продолжительность : 2 ч. 14 м.
Битрейт : 36 бит/сек
ElementCount : 1203
Размер потока : 35,6 Кбайт (0%)
Язык : English
Default : Нет
Forced : Нет
Меню
00:00:00.000 : en:00:00:00.000
00:04:06.746 : en:00:04:06.746
00:27:23.392 : en:00:27:23.392
00:46:41.715 : en:00:46:41.715
01:12:41.315 : en:01:12:41.315
01:32:21.536 : en:01:32:21.536
01:39:35.970 : en:01:39:35.970
02:03:02.208 : en:02:03:02.208
02:17:09.221 : en:02:17:09.221

Скриншоты


[Профиль] [ЛС]
Показать сообщения:    
Ответить на тему

Текущее время: 23-Фев 00:00

Часовой пояс: UTC + 3



Вы не можете начинать темы
Вы не можете отвечать на сообщения
Вы не можете редактировать свои сообщения
Вы не можете удалять свои сообщения
Вы не можете голосовать в опросах
Вы не можете прикреплять файлы к сообщениям
Вы можете скачивать файлы