BitTorrent клиенты



Венецианские львы / Leoni (Пьетро Паролин / Pietro Parolin) [2015, Италия, комедия, DVDRip] MVO (Eurochannel) + Original Ita

Ответить на тему
 
Автор Сообщение

Серёга ®

Пол: Не указан

Стаж: 1 год

Сообщений: 292

Создавать темы 05-Фев-2018 18:18

[Цитировать]

Венецианские львы / Leoni
Страна: Италия
Жанр: комедия
Год выпуска: 2015
Продолжительность: 01:21:45
Перевод: Профессиональный (многоголосый закадровый) Eurochannel
Субтитры: нет
Оригинальная аудиодорожка: итальянский
Режиссер: Пьетро Паролин / Pietro Parolin
В ролях: Нери Маркоре
Стефано Пеше
Анна Далтон
Пьера Дельи Эспости
Пьерпаоло Споллон
Antonio Pennarella
Cristina D'Alberto
Мишель Де Марчини
Helene olivi Borghese
Витторио Босколо
Описание: Гуальтьеро, богатый «папенькин сынок», не унаследовал «предпринимательского гена» и из-за финансового кризиса стал банкротом, растратив все состояние семьи. Теперь ему придется идти на самые невероятные уловки, чтобы сохранить прежний роскошный уровень жизни. Почему бы не устроиться на работу? Гуальтьеро приходит в голову наладить производство первых в мире распятий полностью из переработанного пластика, но где взять сырье, тот самый пластик? А, тут еще многочисленные родственники, друзья и неприятели вьются кругом…
Сэмпл: http://multi-up.com/1183385
Качество видео: DVDRip
Формат видео: AVI
Видео: MPEG4, XviD, 720x288 (2.500), 25.000 fps, 1 749 Kbps (0.337 bit/pixel)
Аудио: AC-3, 48.0 KHz, 2 ch, 192 Kbps, CBR - русский
Аудио 2: AC-3, 48.0 KHz, 6 ch, 448 Kbps, CBR - итальянский

MediaInfo

Общее
Полное имя : M:\Венецианские львы.avi
Формат : AVI
Формат/Информация : Audio Video Interleave
Размер файла : 1,37 Гбайт
Продолжительность : 1 ч. 21 м.
Общий поток : 2404 Кбит/сек
Название фильма : Венецианские львы / Leoni (2015)
Программа кодирования : VirtualDubMod 1.5.10.2 (build 2540/release)
Библиотека кодирования : VirtualDubMod build 2540/release
Авторское право : miha2154
Видео
Идентификатор : 0
Формат : MPEG-4 Visual
Профиль формата : Advanced Simple@L5
Параметр BVOP формата : 1
Параметр QPel формата : Нет
Параметр GMC формата : Без точки перехода
Параметр матрицы формата : Выборочная
Идентификатор кодека : XVID
Идентификатор кодека/Подсказка : XviD
Продолжительность : 1 ч. 21 м.
Битрейт : 1749 Кбит/сек
Ширина : 720 пикселей
Высота : 288 пикселей
Соотношение сторон : 2,500
Частота кадров : 25,000 кадров/сек
Цветовое пространство : YUV
Субдискретизация насыщенности : 4:2:0
Битовая глубина : 8 бит
Тип развёртки : Прогрессивная
Метод сжатия : С потерями
Бит/(Пиксели*Кадры) : 0.337
Размер потока : 1023 Мбайт (73%)
Библиотека кодирования : XviD 65
Аудио #1
Идентификатор : 1
Формат : AC-3
Формат/Информация : Audio Coding 3
Расширение режима : CM (complete main)
Параметр Endianness формата : Big
Идентификатор кодека : 2000
Продолжительность : 1 ч. 21 м.
Вид битрейта : Постоянный
Битрейт : 192 Кбит/сек
Каналы : 2 канала
Расположение каналов : Front: L R
Частота : 48,0 КГц
Частота кадров : 31,250 кадров/сек (1536 spf)
Метод сжатия : С потерями
Размер потока : 112 Мбайт (8%)
Выравнивание : Разделение по промежуткам
Продолжительность промежутка : 40 мс. (1,00 видеокадр)
Время предзагрузки промежутка : 500 мс.
Заголовок : Профессиональный (многоголосый закадровый) Eurochannel
Аудио #2
Идентификатор : 2
Формат : AC-3
Формат/Информация : Audio Coding 3
Расширение режима : CM (complete main)
Параметр Endianness формата : Big
Идентификатор кодека : 2000
Продолжительность : 1 ч. 21 м.
Вид битрейта : Постоянный
Битрейт : 448 Кбит/сек
Каналы : 6 каналов
Расположение каналов : Front: L C R, Side: L R, LFE
Частота : 48,0 КГц
Частота кадров : 31,250 кадров/сек (1536 spf)
Метод сжатия : С потерями
Размер потока : 262 Мбайт (19%)
Выравнивание : Разделение по промежуткам
Продолжительность промежутка : 40 мс. (1,00 видеокадр)
Время предзагрузки промежутка : 500 мс.
Заголовок : Итальянский

Скриншоты


Торрент перезалит 16.01.18 - заменен рип на собственный, стандартного веса, с чуть большим разрешением и наполнением кадра
[Профиль] [ЛС]
Показать сообщения:    
Ответить на тему

Текущее время: 19-Фев 16:20

Часовой пояс: UTC + 3



Вы не можете начинать темы
Вы не можете отвечать на сообщения
Вы не можете редактировать свои сообщения
Вы не можете удалять свои сообщения
Вы не можете голосовать в опросах
Вы не можете прикреплять файлы к сообщениям
Вы можете скачивать файлы