BitTorrent клиенты



Испытание (Александр Котт) [2014, Россия, драма, WEB-DL 1080p] Original Rus

Ответить на тему
 
Автор Сообщение

Вектор ®

Пол: Не указан

Стаж: 1 год

Сообщений: 4452

Создавать темы 05-Фев-2018 18:18

[Цитировать]

Испытание
Страна: Россия
Студия: Профит, Студия Казахфильм
Жанр: драма
Год выпуска: 2014
Продолжительность: 01:32:03
Перевод: Не требуется
Субтитры: нет
Оригинальная аудиодорожка: русский
Режиссер: Александр Котт
В ролях: Елена Ан, Данила Рассомахин, Карим Пакачаков, Нариман Бекбулатов-Арешев, Эдуард Галкин, Дмитрий Семенов, Юрий Пимкин, Игорь Ливенцов, Мирослав Тузин, Рустем Османов, Расим Мамутов, Александр Ким, Асия Ким, Виктор Ким, Саиде Кенжалиева, Зоре Бекирова, Андрей Захаров, Евгений Пухкий, Игорь Салимонов, Ринат Бекташев, Денис Сираев, Андрей Корниенко, Андрей Селезнев, Сергей Халиченко, Энвер Белялов, Павел Рассомахин

Описание: Они живут в степи. Отец и дочь. Ничто не может нарушить вечный порядок. Завтра наступает всегда. И каждое утро отец уезжает работать. И она остается одна. Ждать отца. И чувствовать. Двое любят ее. Она любит каждого. Любовь нельзя поделить.
Однажды решение приходит само. Оттуда, где солнце.

Доп. информация: Фильм не содержит диалогов.

Sample
Тип релиза: WEB-DL 1080p
Контейнер: MKV
Видео: MPEG4 AVC Video, H264, 16:9, 1920x822, 25 fps, 4498 kbps
Аудио: Russian (AC3, 6 ch, 384 kbps, 16 bits, 48.0 KHz) - оригинал

MediaInfo

General
Unique ID : 175154668486162922447576078775378364775 (0x83C58FE55EF2BD208889F42076EDC967)
Complete name : D:\Ispytanie 2014 WEB-DL 1080p.mkv
Format : Matroska
Format version : Version 4 / Version 2
File size : 3.20 GiB
Duration : 1h 32mn
Overall bit rate : 4 981 Kbps
Encoded date : UTC 2015-02-13 12:19:52
Writing application : mkvmerge v6.8.0 ('Theme for Great Cities') 64bit built on Mar 2 2014 21:34:26
Writing library : libebml v1.3.0 + libmatroska v1.4.1
Video
ID : 1
Format : AVC
Format/Info : Advanced Video Codec
Format profile : High@L4.0
Format settings, CABAC : Yes
Format settings, ReFrames : 5 frames
Codec ID : V_MPEG4/ISO/AVC
Duration : 1h 32mn
Bit rate : 4 498 Kbps
Width : 1 920 pixels
Height : 822 pixels
Display aspect ratio : 2.35:1
Frame rate mode : Constant
Frame rate : 25.000 fps
Color space : YUV
Chroma subsampling : 4:2:0
Bit depth : 8 bits
Scan type : Progressive
Bits/(Pixel*Frame) : 0.114
Stream size : 2.89 GiB (90%)
Language : English
Default : Yes
Forced : No
Color primaries : BT.709
Transfer characteristics : BT.709
Matrix coefficients : BT.709
Audio
ID : 2
Format : AC-3
Format/Info : Audio Coding 3
Mode extension : CM (complete main)
Format settings, Endianness : Big
Codec ID : A_AC3
Duration : 1h 32mn
Bit rate mode : Constant
Bit rate : 384 Kbps
Channel count : 6 channels
Channel positions : Front: L C R, Side: L R, LFE
Sampling rate : 48.0 KHz
Bit depth : 16 bits
Compression mode : Lossy
Stream size : 253 MiB (8%)
Language : Russian
Default : Yes
Forced : No
Menu
00:00:00.000 : en:Глава 1
00:04:53.000 : en:Глава 2
00:10:25.000 : en:Глава 3
00:16:10.000 : en:Глава 4
00:21:16.000 : en:Глава 5
00:26:35.000 : en:Глава 6
00:32:35.000 : en:Глава 7
00:37:48.000 : en:Глава 8
00:43:48.000 : en:Глава 9
00:49:01.000 : en:Глава 10
00:54:24.000 : en:Глава 11
01:01:06.000 : en:Глава 12
01:06:22.000 : en:Глава 13
01:11:57.000 : en:Глава 14
01:17:51.000 : en:Глава 15
01:23:29.000 : en:Глава 16
01:27:36.000 : en:Глава 17

Скриншоты


[Профиль] [ЛС]
Показать сообщения:    
Ответить на тему

Текущее время: 20-Фев 06:52

Часовой пояс: UTC + 3



Вы не можете начинать темы
Вы не можете отвечать на сообщения
Вы не можете редактировать свои сообщения
Вы не можете удалять свои сообщения
Вы не можете голосовать в опросах
Вы не можете прикреплять файлы к сообщениям
Вы можете скачивать файлы