BitTorrent клиенты



Про любовь. Только для взрослых (Павел Руминов, Наталья Меркулова, Алексей Чупов, Нигина Сайфуллаева, Евгений Шелякин, Резо Гигинеишвили) [2017, Россия, комедия, WEB-DL 1080p] Original Rus

Ответить на тему
 
Автор Сообщение

Вектор ®

Пол: Не указан

Стаж: 1 год

Сообщений: 4452

Создавать темы 05-Фев-2018 18:18

[Цитировать]

Про любовь. Только для взрослых
Страна: Россия
Студия: Кинокомпания «Магнум»
Жанр: комедия
Год выпуска: 2017
Продолжительность: 01:48:56
Перевод: Не требуется
Субтитры: нет
Оригинальная аудиодорожка: русский
Режиссер: Павел Руминов, Наталья Меркулова, Алексей Чупов, Нигина Сайфуллаева, Евгений Шелякин, Резо Гигинеишвили
В ролях: Джон Малкович, Ингеборга Дапкунайте, Тинатин Далакишвили, Фёдор Бондарчук, Виктория Исакова, Максим Матвеев, Анна Михалкова, Фёдор Лавров, Лукерья Ильяшенко, Владимир Яглыч, Равшана Куркова, Маруся Зыкова, Александр Паль, Гоша Куценко, Александра Бортич, Ясмина Омерович, Глеб Калюжный, Кирилл Каганович, Анна Котова-Дерябина, Анна Банщикова, Алиса Хазанова, Рано Кубаева, Юлия Снигирь, Евгений Цыганов

Описание: Москва, лето. Мегаполис занят своей жизнью, здесь каждый день что-то происходит. Спешащие по своим важным делам люди не забывают и о приобретении новых знаний и навыков. Для этого в Москве каждый может по своему вкусу найти курсы, лекции и тренинги на любую тему. Но нас будет интересовать только одна лекция: про любовь. Герои — это обычные люди, затерянные в большом мегаполисе, они будут сталкиваться и пересекаться друг с другом, и у каждого из них будет своя история любви.

Sample
Тип релиза: WEB-DL 1080p
Контейнер: MKV
Видео: MPEG4 AVC Video, H264, 16:9, 1920x804, 24 fps, 4460 kbps
Аудио: Russian (AC3, 6 ch, 384 kbps, 16 bits, 48.0 KHz) - оригинал

MediaInfo

General
Unique ID : 252934016470767547610055353748793133802 (0xBE4951D31BEB1756B0BB5277D0F50AEA)
Complete name : D:\Про любовь. Только для взрослых 2017 WEB-DL 1080p.mkv
Format : Matroska
Format version : Version 2
File size : 3.76 GiB
Duration : 1h 48mn
Overall bit rate : 4 942 Kbps
Encoded date : UTC 2017-10-15 18:05:42
Writing application : mkvmerge v8.3.0 ('Over the Horizon') 64bit
Writing library : libebml v1.3.1 + libmatroska v1.4.2
DURATION : 01:48:56.832000000
NUMBER_OF_FRAMES : 204276
NUMBER_OF_BYTES : 313767936
_STATISTICS_WRITING_APP : mkvmerge v8.3.0 ('Over the Horizon') 64bit
_STATISTICS_WRITING_DATE_UTC : 2017-10-15 18:05:42
_STATISTICS_TAGS : BPS DURATION NUMBER_OF_FRAMES NUMBER_OF_BYTES
Video
ID : 1
Format : AVC
Format/Info : Advanced Video Codec
Format profile : High@L4.0
Format settings, CABAC : Yes
Format settings, ReFrames : 5 frames
Codec ID : V_MPEG4/ISO/AVC
Duration : 1h 48mn
Bit rate : 4 460 Kbps
Width : 1 920 pixels
Height : 804 pixels
Display aspect ratio : 2.40:1
Frame rate mode : Constant
Frame rate : 24.000 fps
Color space : YUV
Chroma subsampling : 4:2:0
Bit depth : 8 bits
Scan type : Progressive
Bits/(Pixel*Frame) : 0.120
Stream size : 3.39 GiB (90%)
Language : English
Default : Yes
Forced : No
Color primaries : BT.709
Transfer characteristics : BT.709
Matrix coefficients : BT.709
Audio
ID : 2
Format : AC-3
Format/Info : Audio Coding 3
Mode extension : CM (complete main)
Format settings, Endianness : Big
Codec ID : A_AC3
Duration : 1h 48mn
Bit rate mode : Constant
Bit rate : 384 Kbps
Channel count : 6 channels
Channel positions : Front: L C R, Side: L R, LFE
Sampling rate : 48.0 KHz
Bit depth : 16 bits
Compression mode : Lossy
Stream size : 299 MiB (8%)
Language : Russian
Default : Yes
Forced : No
Menu
00:00:00.000 : en:Глава 1
00:06:13.833 : en:Глава 2
00:13:43.333 : en:Глава 3
00:21:29.916 : en:Глава 4
00:27:49.166 : en:Глава 5
00:32:56.666 : en:Глава 6
00:37:51.249 : en:Глава 7
00:41:44.540 : en:Глава 8
00:45:03.290 : en:Глава 9
00:50:20.165 : en:Глава 10
00:56:01.915 : en:Глава 11
01:02:24.498 : en:Глава 12
01:07:56.664 : en:Глава 13
01:14:18.539 : en:Глава 14
01:21:21.830 : en:Глава 15
01:27:40.996 : en:Глава 16
01:36:41.412 : en:Глава 17

Скриншоты


[Профиль] [ЛС]
Показать сообщения:    
Ответить на тему

Текущее время: 20-Фев 06:54

Часовой пояс: UTC + 3



Вы не можете начинать темы
Вы не можете отвечать на сообщения
Вы не можете редактировать свои сообщения
Вы не можете удалять свои сообщения
Вы не можете голосовать в опросах
Вы не можете прикреплять файлы к сообщениям
Вы можете скачивать файлы