BitTorrent клиенты



Чужие против Хищника: Реквием (Расширенная версия) / Aliens vs. Predator Requiem [Extreme Unrated] (Колин Штраус / Colin Strause, Грег Штраус / Greg Strause) [2007, США, ужасы, фантастика, боевик, BDRip] AVO (Андрей Гаврилов) + AVO (Юрий Живов)

Ответить на тему
 
Автор Сообщение

Angel ®

Пол: Не указан

Стаж: 1 год

Сообщений: 1346

Создавать темы 05-Фев-2018 18:18

[Цитировать]

Чужие против Хищника: Реквием ( Расширенная версия) / Aliens vs. Predator Requiem [Extreme Unrated]
Страна: США
Жанр: ужасы, фантастика, боевик
Год выпуска: 2007
Продолжительность: 01:41:04
Перевод: Авторский (одноголосый закадровый) Андрей Гаврилов
Перевод: 2 Авторский (одноголосый закадровый) Юрий Живов (отдельно)
Субтитры: нет
Режиссер: Колин Штраус / Colin Strause, Грег Штраус / Greg Strause
В ролях: Стивен Паскуале, Рейко Эйлсворт, Джон Ортиз, Джонни Льюис, Эриель Гейд, Кристен Хагер, Сэм Траммелл, Роберт Джой, Дэвид Петкау, Том Вудрафф мл.
Описание: После того, как "Хищникам" удалось изгнать "Чужих" с Земли, казалось, что они больше никогда не осмелятся потревожить покой нашей планеты. Но вот около одного маленького американского городка, терпит аварию космический корабль, на борту которого находятся несколько опасных заключенных из расы "Чужих". "Чужие" выживают после катастрофы и сразу же после этого приступают к своему любимому занятию – истреблению всего живого....
Внимание перезалив : -- Добавлена дорога с Юрием Живовым ...
Сэмпл: http://multi-up.com/1184295
Качество видео: BDRip (Исходник BDRemux 1080p)
Формат видео: AVI
Видео: XviD 73, 720x304, (2,35:1), 23,976 fps, 1811 Кбит/с, 8 бит, 0.30 bit/pixel
Аудио: Русский (АС3, 2 ch (Front: L R), 48,0 KHz, (stereo) 224 Kbps) Андрей Гаврилов
Аудио: 2 Русский (АС3, 6 ch (Front: L C R, Side: L R, LFE), 48,0 KHz, 448 Kbps) Юрий Живов (отдельно)

MediaInfo

Общее
Полное имя : D:\Видеофильмы\В и д е о\Чужие против Хищника - Реквием (ужасы, фантастика, боевик 2007 год).avi
Формат : AVI
Формат/Информация : Audio Video Interleave
Размер файла : 1,44 Гбайт
Продолжительность : 1 ч. 41 м.
Общий поток : 2045 Кбит/сек
Программа кодирования : VirtualDubMod 1.5.10.3 | www.virtualdub-fr.org || (build 2550/release)
Библиотека кодирования : VirtualDubMod build 2550/release
Видео
Идентификатор : 0
Формат : MPEG-4 Visual
Профиль формата : Advanced Simple@L5
Параметр BVOP формата : 2
Параметр QPel формата : Нет
Параметр GMC формата : Без точки перехода
Параметр матрицы формата : Выборочная
Идентификатор кодека : XVID
Идентификатор кодека/Подсказка : XviD
Продолжительность : 1 ч. 41 м.
Битрейт : 1811 Кбит/сек
Ширина : 720 пикселей
Высота : 304 пикселя
Соотношение сторон : 2,35:1
Частота кадров : 23,976 (23976/1000) кадра/сек
Цветовое пространство : YUV
Субдискретизация насыщенности : 4:2:0
Битовая глубина : 8 бит
Тип развёртки : Прогрессивная
Метод сжатия : С потерями
Бит/(Пиксели*Кадры) : 0.345
Размер потока : 1,28 Гбайт (89%)
Библиотека кодирования : XviD 73
Аудио
Идентификатор : 1
Формат : AC-3
Формат/Информация : Audio Coding 3
Расширение режима : CM (complete main)
Параметр Endianness формата : Big
Идентификатор кодека : 2000
Продолжительность : 1 ч. 41 м.
Вид битрейта : Постоянный
Битрейт : 224 Кбит/сек
Каналы : 2 канала
Расположение каналов : Front: L R
Частота : 48,0 КГц
Частота кадров : 31,250 кадров/сек (1536 spf)
Метод сжатия : С потерями
Размер потока : 162 Мбайт (11%)
Выравнивание : Разделение по промежуткам
Продолжительность промежутка : 42 мс. (1,00 видеокадр)
Время предзагрузки промежутка : 500 мс.

Скриншот c названием фильма

Скриншоты

[Профиль] [ЛС]
Показать сообщения:    
Ответить на тему

Текущее время: 21-Фев 23:36

Часовой пояс: UTC + 3



Вы не можете начинать темы
Вы не можете отвечать на сообщения
Вы не можете редактировать свои сообщения
Вы не можете удалять свои сообщения
Вы не можете голосовать в опросах
Вы не можете прикреплять файлы к сообщениям
Вы можете скачивать файлы